  0
SECTION
  2
HEADER
  9
$ACADVER
  1
AC1015
  9
$ACADMAINTVER
 70
    20
  9
$DWGCODEPAGE
  3
ANSI_932
  9
$INSBASE
 10
0.0
 20
0.0
 30
0.0
  9
$EXTMIN
 10
-360.0219709798949
 20
-539.8922095582229
 30
-0.0015258207003583
  9
$EXTMAX
 10
360.0219743326563
 20
530.6280480280329
 30
0.0000000349246037
  9
$LIMMIN
 10
0.0
 20
0.0
  9
$LIMMAX
 10
0.0
 20
0.0
  9
$ORTHOMODE
 70
     0
  9
$REGENMODE
 70
     1
  9
$FILLMODE
 70
     1
  9
$QTEXTMODE
 70
     0
  9
$MIRRTEXT
 70
     1
  9
$LTSCALE
 40
20.32
  9
$ATTMODE
 70
     1
  9
$TEXTSIZE
 40
0.0
  9
$TRACEWID
 40
1.0
  9
$TEXTSTYLE
  7
STANDARD
  9
$CLAYER
  8
DATA
  9
$CELTYPE
  6
ByLayer
  9
$CECOLOR
 62
   256
  9
$CELTSCALE
 40
1.0
  9
$DISPSILH
 70
     0
  9
$DIMSCALE
 40
1.0
  9
$DIMASZ
 40
7.999511718749998
  9
$DIMEXO
 40
4.799999999999999
  9
$DIMDLI
 40
4.999999999999999
  9
$DIMRND
 40
0.0
  9
$DIMDLE
 40
0.0
  9
$DIMEXE
 40
4.0
  9
$DIMTP
 40
0.0
  9
$DIMTM
 40
0.0
  9
$DIMTXT
 40
13.03072916666666
  9
$DIMCEN
 40
0.0
  9
$DIMTSZ
 40
0.0
  9
$DIMTOL
 70
     0
  9
$DIMLIM
 70
     0
  9
$DIMTIH
 70
     0
  9
$DIMTOH
 70
     0
  9
$DIMSE1
 70
     0
  9
$DIMSE2
 70
     0
  9
$DIMTAD
 70
     1
  9
$DIMZIN
 70
     3
  9
$DIMBLK
  1
VW_OPENARROW
  9
$DIMASO
 70
     1
  9
$DIMSHO
 70
     1
  9
$DIMPOST
  1
<>
  9
$DIMAPOST
  1
[]
  9
$DIMALT
 70
     0
  9
$DIMALTD
 70
     2
  9
$DIMALTF
 40
1.0
  9
$DIMLFAC
 40
1.0
  9
$DIMTOFL
 70
     1
  9
$DIMTVP
 40
0.0
  9
$DIMTIX
 70
     1
  9
$DIMSOXD
 70
     0
  9
$DIMSAH
 70
     0
  9
$DIMBLK1
  1

  9
$DIMBLK2
  1

  9
$DIMSTYLE
  2
HIBINO
  9
$DIMCLRD
 70
     0
  9
$DIMCLRE
 70
     0
  9
$DIMCLRT
 70
     0
  9
$DIMTFAC
 40
1.0
  9
$DIMGAP
 40
0.5
  9
$DIMJUST
 70
     0
  9
$DIMSD1
 70
     0
  9
$DIMSD2
 70
     0
  9
$DIMTOLJ
 70
     1
  9
$DIMTZIN
 70
     0
  9
$DIMALTZ
 70
     0
  9
$DIMALTTZ
 70
     0
  9
$DIMUPT
 70
     0
  9
$DIMDEC
 70
     4
  9
$DIMTDEC
 70
     4
  9
$DIMALTU
 70
     2
  9
$DIMALTTD
 70
     2
  9
$DIMTXSTY
  7
STANDARD
  9
$DIMAUNIT
 70
     0
  9
$DIMADEC
 70
     0
  9
$DIMALTRND
 40
0.0
  9
$DIMAZIN
 70
     0
  9
$DIMDSEP
 70
    46
  9
$DIMATFIT
 70
     3
  9
$DIMFRAC
 70
     0
  9
$DIMLDRBLK
  1
VW_OPENARROW
  9
$DIMLUNIT
 70
     2
  9
$DIMLWD
 70
    -2
  9
$DIMLWE
 70
    -2
  9
$DIMTMOVE
 70
     0
  9
$LUNITS
 70
     2
  9
$LUPREC
 70
     2
  9
$SKETCHINC
 40
0.1
  9
$FILLETRAD
 40
0.0
  9
$AUNITS
 70
     0
  9
$AUPREC
 70
     0
  9
$MENU
  1
acad
  9
$ELEVATION
 40
0.0
  9
$PELEVATION
 40
0.0
  9
$THICKNESS
 40
0.0
  9
$LIMCHECK
 70
     0
  9
$CHAMFERA
 40
0.0
  9
$CHAMFERB
 40
0.0
  9
$CHAMFERC
 40
0.0
  9
$CHAMFERD
 40
0.0
  9
$SKPOLY
 70
     0
  9
$TDCREATE
 40
2458796.738113426
  9
$TDUCREATE
 40
2458796.363113426
  9
$TDUPDATE
 40
2458796.739097222
  9
$TDUUPDATE
 40
2458796.364097222
  9
$TDINDWG
 40
0.0004745370
  9
$TDUSRTIMER
 40
0.0004745370
  9
$USRTIMER
 70
     1
  9
$ANGBASE
 50
0.0
  9
$ANGDIR
 70
     0
  9
$PDMODE
 70
     1
  9
$PDSIZE
 40
-2.0
  9
$PLINEWID
 40
0.0
  9
$SPLFRAME
 70
     0
  9
$SPLINETYPE
 70
     6
  9
$SPLINESEGS
 70
     8
  9
$HANDSEED
  5
987
  9
$SURFTAB1
 70
     6
  9
$SURFTAB2
 70
     6
  9
$SURFTYPE
 70
     6
  9
$SURFU
 70
     6
  9
$SURFV
 70
     6
  9
$UCSBASE
  2

  9
$UCSNAME
  2

  9
$UCSORG
 10
0.0
 20
0.0
 30
0.0
  9
$UCSXDIR
 10
1.0
 20
0.0
 30
0.0
  9
$UCSYDIR
 10
0.0
 20
1.0
 30
0.0
  9
$UCSORTHOREF
  2

  9
$UCSORTHOVIEW
 70
     0
  9
$UCSORGTOP
 10
0.0
 20
0.0
 30
0.0
  9
$UCSORGBOTTOM
 10
0.0
 20
0.0
 30
0.0
  9
$UCSORGLEFT
 10
0.0
 20
0.0
 30
0.0
  9
$UCSORGRIGHT
 10
0.0
 20
0.0
 30
0.0
  9
$UCSORGFRONT
 10
0.0
 20
0.0
 30
0.0
  9
$UCSORGBACK
 10
0.0
 20
0.0
 30
0.0
  9
$PUCSBASE
  2

  9
$PUCSNAME
  2

  9
$PUCSORG
 10
0.0
 20
0.0
 30
0.0
  9
$PUCSXDIR
 10
1.0
 20
0.0
 30
0.0
  9
$PUCSYDIR
 10
0.0
 20
1.0
 30
0.0
  9
$PUCSORTHOREF
  2

  9
$PUCSORTHOVIEW
 70
     0
  9
$PUCSORGTOP
 10
0.0
 20
0.0
 30
0.0
  9
$PUCSORGBOTTOM
 10
0.0
 20
0.0
 30
0.0
  9
$PUCSORGLEFT
 10
0.0
 20
0.0
 30
0.0
  9
$PUCSORGRIGHT
 10
0.0
 20
0.0
 30
0.0
  9
$PUCSORGFRONT
 10
0.0
 20
0.0
 30
0.0
  9
$PUCSORGBACK
 10
0.0
 20
0.0
 30
0.0
  9
$USERI1
 70
     0
  9
$USERI2
 70
     0
  9
$USERI3
 70
     0
  9
$USERI4
 70
     0
  9
$USERI5
 70
     0
  9
$USERR1
 40
0.0
  9
$USERR2
 40
0.0
  9
$USERR3
 40
0.0
  9
$USERR4
 40
0.0
  9
$USERR5
 40
0.0
  9
$WORLDVIEW
 70
     1
  9
$SHADEDGE
 70
     3
  9
$SHADEDIF
 70
    70
  9
$TILEMODE
 70
     1
  9
$MAXACTVP
 70
    64
  9
$PINSBASE
 10
0.0
 20
0.0
 30
0.0
  9
$PLIMCHECK
 70
     0
  9
$PEXTMIN
 10
1.000000000000000E+20
 20
1.000000000000000E+20
 30
1.000000000000000E+20
  9
$PEXTMAX
 10
-1.000000000000000E+20
 20
-1.000000000000000E+20
 30
-1.000000000000000E+20
  9
$PLIMMIN
 10
0.0
 20
0.0
  9
$PLIMMAX
 10
12.0
 20
9.0
  9
$UNITMODE
 70
     0
  9
$VISRETAIN
 70
     0
  9
$PLINEGEN
 70
     1
  9
$PSLTSCALE
 70
     0
  9
$TREEDEPTH
 70
  3020
  9
$CMLSTYLE
  2
Standard
  9
$CMLJUST
 70
     0
  9
$CMLSCALE
 40
1.0
  9
$PROXYGRAPHICS
 70
     1
  9
$MEASUREMENT
 70
     0
  9
$CELWEIGHT
370
    -1
  9
$ENDCAPS
280
     0
  9
$JOINSTYLE
280
     0
  9
$LWDISPLAY
290
     0
  9
$INSUNITS
 70
     4
  9
$HYPERLINKBASE
  1

  9
$STYLESHEET
  1

  9
$XEDIT
290
     1
  9
$CEPSNTYPE
380
     0
  9
$PSTYLEMODE
290
     1
  9
$FINGERPRINTGUID
  2
{4A4B9459-AE27-904B-95CE-4DAEE08B76BD}
  9
$VERSIONGUID
  2
{8652C67F-0B4C-1C4A-91BE-5807A87E3E6F}
  9
$EXTNAMES
290
     1
  9
$PSVPSCALE
 40
0.0
  9
$OLESTARTUP
290
     0
  0
ENDSEC
  0
SECTION
  2
CLASSES
  0
CLASS
  1
ACDBDICTIONARYWDFLT
  2
AcDbDictionaryWithDefault
  3
ObjectDBX Classes
 90
        0
280
     0
281
     0
  0
CLASS
  1
MATERIAL
  2
AcDbMaterial
  3
ObjectDBX Classes
 90
     1153
280
     0
281
     0
  0
CLASS
  1
VISUALSTYLE
  2
AcDbVisualStyle
  3
ObjectDBX Classes
 90
     4095
280
     0
281
     0
  0
CLASS
  1
SCALE
  2
AcDbScale
  3
ObjectDBX Classes
 90
     1153
280
     0
281
     0
  0
CLASS
  1
TABLESTYLE
  2
AcDbTableStyle
  3
ObjectDBX Classes
 90
     4095
280
     0
281
     0
  0
CLASS
  1
MLEADERSTYLE
  2
AcDbMLeaderStyle
  3
ACDB_MLEADERSTYLE_CLASS
 90
     4095
280
     0
281
     0
  0
CLASS
  1
ACDBSECTIONVIEWSTYLE
  2
AcDbSectionViewStyle
  3
ObjectDBX Classes
 90
     1025
280
     0
281
     0
  0
CLASS
  1
ACDBDETAILVIEWSTYLE
  2
AcDbDetailViewStyle
  3
ObjectDBX Classes
 90
     1025
280
     0
281
     0
  0
CLASS
  1
DICTIONARYVAR
  2
AcDbDictionaryVar
  3
ObjectDBX Classes
 90
        0
280
     0
281
     0
  0
CLASS
  1
CELLSTYLEMAP
  2
AcDbCellStyleMap
  3
ObjectDBX Classes
 90
     1152
280
     0
281
     0
  0
CLASS
  1
ACDBPLACEHOLDER
  2
AcDbPlaceHolder
  3
ObjectDBX Classes
 90
        0
280
     0
281
     0
  0
CLASS
  1
LAYOUT
  2
AcDbLayout
  3
ObjectDBX Classes
 90
        0
280
     0
281
     0
  0
ENDSEC
  0
SECTION
  2
TABLES
  0
TABLE
  2
VPORT
  5
8AD
330
0
100
AcDbSymbolTable
 70
     1
  0
VPORT
  5
919
330
8AD
100
AcDbSymbolTableRecord
100
AcDbViewportTableRecord
  2
*ACTIVE
 70
     0
 10
0.0
 20
0.0
 11
1.0
 21
1.0
 12
0.0000016763806343
 22
-4.632080765094997
 13
0.0
 23
0.0
 14
1.0
 24
1.0
 15
0.0
 25
0.0
 16
0.0
 26
0.0
 36
1.0
 17
0.0
 27
0.0
 37
0.0
 40
1080.208223718258
 41
2.86858006042296
 42
50.0
 43
0.0
 44
0.0
 50
0.0
 51
0.0
 71
     0
 72
  2000
 73
     1
 74
     1
 75
     0
 76
     0
 77
     0
 78
     0
281
     0
 65
     1
110
0.0
120
0.0
130
0.0
111
1.0
121
0.0
131
0.0
112
0.0
122
1.0
132
0.0
 79
     0
146
0.0
1001
ACAD_NAV_VCDISPLAY
1070
     3
  0
ENDTAB
  0
TABLE
  2
LTYPE
  5
8AA
330
0
100
AcDbSymbolTable
 70
    11
  0
LTYPE
  5
8FF
330
8AA
100
AcDbSymbolTableRecord
100
AcDbLinetypeTableRecord
  2
ByBlock
 70
     0
  3

 72
    65
 73
     0
 40
0.0
  0
LTYPE
  5
900
330
8AA
100
AcDbSymbolTableRecord
100
AcDbLinetypeTableRecord
  2
ByLayer
 70
     0
  3

 72
    65
 73
     0
 40
0.0
  0
LTYPE
  5
901
330
8AA
100
AcDbSymbolTableRecord
100
AcDbLinetypeTableRecord
  2
CONTINUOUS
 70
     0
  3
Solid line
 72
    65
 73
     0
 40
0.0
  0
LTYPE
  5
91F
330
8AA
100
AcDbSymbolTableRecord
100
AcDbLinetypeTableRecord
  2
STYLE_06
 70
     0
  3

 72
    65
 73
     4
 40
1.041641235351562
 49
0.625
 74
     0
 49
-0.208282470703125
 74
     0
 49
0.069427490234375
 74
     0
 49
-0.1389312744140625
 74
     0
  0
ENDTAB
  0
TABLE
  2
LAYER
  5
8A7
330
0
100
AcDbSymbolTable
 70
     6
  0
LAYER
  5
8F9
102
{ACAD_XDICTIONARY
360
931
102
}
330
8A7
100
AcDbSymbolTableRecord
100
AcDbLayerTableRecord
  2
0
 70
     0
 62
     7
  6
CONTINUOUS
370
    -3
390
8B4
  0
LAYER
  5
918
102
{ACAD_XDICTIONARY
360
933
102
}
330
8A7
100
AcDbSymbolTableRecord
100
AcDbLayerTableRecord
  2
DATA
 70
     0
 62
     7
  6
CONTINUOUS
370
    -3
390
8B4
  0
LAYER
  5
924
102
{ACAD_XDICTIONARY
360
935
102
}
330
8A7
100
AcDbSymbolTableRecord
100
AcDbLayerTableRecord
  2
HIBINO-BASE
 70
     0
 62
     7
  6
CONTINUOUS
370
    -3
390
8B4
  0
LAYER
  5
925
102
{ACAD_XDICTIONARY
360
937
102
}
330
8A7
100
AcDbSymbolTableRecord
100
AcDbLayerTableRecord
  2
SPEC
 70
     0
 62
     7
  6
CONTINUOUS
370
    -3
390
8B4
  0
LAYER
  5
926
102
{ACAD_XDICTIONARY
360
939
102
}
330
8A7
100
AcDbSymbolTableRecord
100
AcDbLayerTableRecord
  2
DIMNSIONS
 70
     0
 62
     7
  6
CONTINUOUS
370
    -3
390
8B4
  0
LAYER
  5
927
330
8A7
100
AcDbSymbolTableRecord
100
AcDbLayerTableRecord
  2
DEFPOINTS
 70
     0
 62
     7
  6
CONTINUOUS
290
     0
370
    -3
390
8B4
  0
ENDTAB
  0
TABLE
  2
STYLE
  5
8A8
330
0
100
AcDbSymbolTable
 70
     3
  0
STYLE
  5
8FA
330
8A8
100
AcDbSymbolTableRecord
100
AcDbTextStyleTableRecord
  2
STANDARD
 70
     0
 40
0.0
 41
1.0
 50
0.0
 71
     0
 42
0.0
  3
txt
  4
BIGFONT.SHX
  0
STYLE
  5
928
330
8A8
100
AcDbSymbolTableRecord
100
AcDbTextStyleTableRecord
  2
_______
 70
     0
 40
0.0
 41
1.0
 50
0.0
 71
     0
 42
0.0
  3

  4
ＭＳ ゴシック
  0
ENDTAB
  0
TABLE
  2
VIEW
  5
8AB
330
0
100
AcDbSymbolTable
 70
     0
  0
ENDTAB
  0
TABLE
  2
UCS
  5
8AC
330
0
100
AcDbSymbolTable
 70
     0
  0
ENDTAB
  0
TABLE
  2
APPID
  5
8AE
330
0
100
AcDbSymbolTable
 70
     4
  0
APPID
  5
8FB
330
8AE
100
AcDbSymbolTableRecord
100
AcDbRegAppTableRecord
  2
ACAD
 70
     0
  0
APPID
  5
902
330
8AE
100
AcDbSymbolTableRecord
100
AcDbRegAppTableRecord
  2
AcadAnnotative
 70
     0
  0
APPID
  5
945
330
8AE
100
AcDbSymbolTableRecord
100
AcDbRegAppTableRecord
  2
ACAD_NAV_VCDISPLAY
 70
     0
  0
APPID
  5
97E
330
8AE
100
AcDbSymbolTableRecord
100
AcDbRegAppTableRecord
  2
ACAD_MLEADERVER
 70
     0
  0
ENDTAB
  0
TABLE
  2
DIMSTYLE
  5
8AF
330
0
100
AcDbSymbolTable
 70
     3
100
AcDbDimStyleTable
 71
     0
  0
DIMSTYLE
105
8FC
330
8AF
100
AcDbSymbolTableRecord
100
AcDbDimStyleTableRecord
  2
STANDARD
 70
     0
279
     2
284
     3
285
     3
286
     3
340
8FA
  0
DIMSTYLE
105
929
102
{ACAD_REACTORS
330
8A3
102
}
330
8AF
100
AcDbSymbolTableRecord
100
AcDbDimStyleTableRecord
  2
HIBINO
 70
     0
  4
[]
 41
7.999511718749998
 42
4.799999999999999
 43
4.999999999999999
 44
4.0
 73
     0
 74
     0
 77
     1
 78
     3
140
13.03072916666666
141
0.0
143
1.0
147
0.5
172
     1
174
     1
279
     2
284
     3
285
     3
286
     3
340
8FA
  0
ENDTAB
  0
TABLE
  2
BLOCK_RECORD
  5
8A6
330
0
100
AcDbSymbolTable
 70
     2
  0
BLOCK_RECORD
  5
914
330
8A6
100
AcDbSymbolTableRecord
100
AcDbBlockTableRecord
  2
*Model_Space
340
917
  0
BLOCK_RECORD
  5
910
330
8A6
100
AcDbSymbolTableRecord
100
AcDbBlockTableRecord
  2
*Paper_Space
340
913
  0
BLOCK_RECORD
  5
92D
330
8A6
100
AcDbSymbolTableRecord
100
AcDbBlockTableRecord
  2
VW_OPENARROW
340
0
  0
BLOCK_RECORD
  5
92E
330
8A6
100
AcDbSymbolTableRecord
100
AcDbBlockTableRecord
  2
*D1
340
0
  0
ENDTAB
  0
ENDSEC
  0
SECTION
  2
BLOCKS
  0
BLOCK
  5
915
330
914
100
AcDbEntity
  8
0
100
AcDbBlockBegin
  2
*Model_Space
 70
     0
 10
0.0
 20
0.0
 30
0.0
  3
*Model_Space
  1

  0
ENDBLK
  5
916
330
914
100
AcDbEntity
  8
0
100
AcDbBlockEnd
  0
BLOCK
  5
911
330
910
100
AcDbEntity
 67
     1
  8
0
100
AcDbBlockBegin
  2
*Paper_Space
 70
     0
 10
0.0
 20
0.0
 30
0.0
  3
*Paper_Space
  1

  0
ENDBLK
  5
912
330
910
100
AcDbEntity
 67
     1
  8
0
100
AcDbBlockEnd
  0
BLOCK
  5
2F
330
92D
100
AcDbEntity
  8
0
  6
ByBlock
 62
     0
100
AcDbBlockBegin
  2
VW_OPENARROW
 70
     0
 10
0.0
 20
0.0
 30
0.0
  3
VW_OPENARROW
  1

  0
LINE
  5
30
330
92D
100
AcDbEntity
  8
0
  6
ByBlock
 62
     0
100
AcDbLine
 10
0.0
 20
0.0
 30
0.0
 11
-1.0
 21
0.0
 31
0.0
  0
LINE
  5
31
330
92D
100
AcDbEntity
  8
0
  6
ByBlock
 62
     0
100
AcDbLine
 10
0.0
 20
0.0
 30
0.0
 11
-0.9983886718749998
 21
-0.2675174383612874
 31
0.0
  0
LINE
  5
32
330
92D
100
AcDbEntity
  8
0
  6
ByBlock
 62
     0
100
AcDbLine
 10
0.0
 20
0.0
 30
0.0
 11
-0.9983886718749998
 21
0.2675174383612876
 31
0.0
  0
ENDBLK
  5
33
330
92D
100
AcDbEntity
  8
0
100
AcDbBlockEnd
  0
BLOCK
  5
35
330
92E
100
AcDbEntity
  8
DATA
100
AcDbBlockBegin
  2
*D1
 70
     1
 10
0.0
 20
0.0
 30
0.0
  3
*D1
  1

  0
LINE
  5
36
330
92E
100
AcDbEntity
  8
0
  6
Continuous
 62
     0
100
AcDbLine
 10
-123.7
 20
-141.2500000000001
 30
0.0
 11
-108.5
 21
-141.2500000000001
 31
0.0
  0
LINE
  5
37
330
92E
100
AcDbEntity
  8
0
  6
Continuous
 62
     0
100
AcDbLine
 10
-118.95
 20
-107.2500000000001
 30
0.0
 11
-108.5
 21
-107.2500000000001
 31
0.0
  0
LINE
  5
38
330
92E
100
AcDbEntity
  8
0
  6
Continuous
 62
     0
100
AcDbLine
 10
-112.5
 20
-107.2500000000001
 30
0.0
 11
-112.5
 21
-100.0
 31
0.0
  0
LINE
  5
39
330
92E
100
AcDbEntity
  8
0
  6
Continuous
 62
     0
100
AcDbLine
 10
-112.5
 20
-141.2500000000001
 30
0.0
 11
-112.5
 21
-107.2500000000001
 31
0.0
  0
LINE
  5
3A
330
92E
100
AcDbEntity
  8
0
  6
Continuous
 62
     0
100
AcDbLine
 10
-112.5
 20
-141.2500000000001
 30
0.0
 11
-114.6434627048823
 21
-133.2504882812501
 31
0.0
  0
LINE
  5
3B
330
92E
100
AcDbEntity
  8
0
  6
Continuous
 62
     0
100
AcDbLine
 10
-112.5
 20
-141.2500000000001
 30
0.0
 11
-110.3565372951176
 21
-133.2504882812501
 31
0.0
  0
LINE
  5
3C
330
92E
100
AcDbEntity
  8
0
  6
Continuous
 62
     0
100
AcDbLine
 10
-112.5
 20
-107.2500000000001
 30
0.0
 11
-110.3565372951176
 21
-115.2495117187501
 31
0.0
  0
LINE
  5
3D
330
92E
100
AcDbEntity
  8
0
  6
Continuous
 62
     0
100
AcDbLine
 10
-112.5
 20
-107.2500000000001
 30
0.0
 11
-114.6434627048823
 21
-115.2495117187501
 31
0.0
  0
TEXT
  5
3E
330
92E
100
AcDbEntity
  8
0
 62
     0
100
AcDbText
 10
-106.404
 20
-100.0
 30
0.0
 40
13.03072916666666
  1
34.0
 50
90.0
  7
_______
 11
-119.4347291666667
 21
-100.0
 31
0.0
100
AcDbText
 73
     3
  0
POINT
  5
3F
330
92E
100
AcDbEntity
  8
DEFPOINTS
 62
     0
100
AcDbPoint
 10
-123.75
 20
-107.2500000000001
 30
0.0
  0
POINT
  5
40
330
92E
100
AcDbEntity
  8
DEFPOINTS
 62
     0
100
AcDbPoint
 10
-128.5
 20
-141.2500000000001
 30
0.0
  0
POINT
  5
41
330
92E
100
AcDbEntity
  8
DEFPOINTS
 62
     0
100
AcDbPoint
 10
-112.5
 20
-141.2500000000001
 30
0.0
  0
ENDBLK
  5
42
330
92E
100
AcDbEntity
  8
DATA
100
AcDbBlockEnd
  0
ENDSEC
  0
SECTION
  2
ENTITIES
  0
LINE
  5
43
330
914
100
AcDbEntity
  8
HIBINO-BASE
  6
Continuous
 62
     7
100
AcDbLine
 10
-360.0
 20
530.5954449999999
 30
0.0
 11
360.0
 21
530.5954449999999
 31
0.0
  0
LINE
  5
44
330
914
100
AcDbEntity
  8
HIBINO-BASE
  6
Continuous
 62
     7
100
AcDbLine
 10
360.0
 20
-509.4045549999998
 30
0.0
 11
-360.0
 21
-509.4045549999998
 31
0.0
  0
LINE
  5
45
330
914
100
AcDbEntity
  8
HIBINO-BASE
  6
Continuous
 62
     7
100
AcDbLine
 10
-360.0
 20
-509.4045549999998
 30
0.0
 11
-360.0
 21
530.5954449999999
 31
0.0
  0
LINE
  5
46
330
914
100
AcDbEntity
  8
HIBINO-BASE
  6
Continuous
 62
     7
100
AcDbLine
 10
360.0
 20
530.5954449999999
 30
0.0
 11
360.0
 21
-509.4045549999998
 31
0.0
  0
LINE
  5
47
330
914
100
AcDbEntity
  8
HIBINO-BASE
  6
Continuous
 62
     7
100
AcDbLine
 10
0.0000000000000568
 20
-419.4045549999998
 30
0.0
 11
360.0
 21
-419.4045549999998
 31
0.0
  0
LINE
  5
48
330
914
100
AcDbEntity
  8
HIBINO-BASE
  6
Continuous
 62
     7
100
AcDbLine
 10
0.0000000000000568
 20
-509.4045549999998
 30
0.0
 11
0.0000000000000568
 21
-419.4045549999998
 31
0.0
  0
TEXT
  5
49
330
914
100
AcDbEntity
  8
HIBINO-BASE
 62
     7
100
AcDbText
 10
3.600000000000079
 20
-429.4393283333333
 30
0.0
 40
6.515364583333332
  1
NOTE
 41
0.7
 11
3.60000000000008
 21
-422.9239637499999
 31
0.0
100
AcDbText
 73
     3
  0
LINE
  5
4A
330
914
100
AcDbEntity
  8
HIBINO-BASE
  6
Continuous
 62
     7
100
AcDbLine
 10
140.0
 20
-509.4045549999998
 30
0.0
 11
140.0
 21
-419.4045549999998
 31
0.0
  0
TEXT
  5
4B
330
914
100
AcDbEntity
  8
HIBINO-BASE
 62
     7
100
AcDbText
 10
143.5999999999999
 20
-429.4393283333333
 30
0.0
 40
6.515364583333332
  1
TITLE
 41
0.7
 11
143.5999999999999
 21
-422.9239637499999
 31
0.0
100
AcDbText
 73
     3
  0
LINE
  5
4C
330
914
100
AcDbEntity
  8
HIBINO-BASE
  6
Continuous
 62
     7
100
AcDbLine
 10
0.0000000000000568
 20
-469.4045549999998
 30
0.0
 11
360.0
 21
-469.4045549999998
 31
0.0
  0
TEXT
  5
4D
330
914
100
AcDbEntity
  8
HIBINO-BASE
 62
     7
100
AcDbText
 10
193.6
 20
-479.2140483333333
 30
0.0
 40
6.515364583333332
  1
DRAWN
 41
0.7
 11
193.6
 21
-472.69868375
 31
0.0
100
AcDbText
 73
     3
  0
TEXT
  5
4E
330
914
100
AcDbEntity
  8
HIBINO-BASE
 62
     7
100
AcDbText
 10
93.59999999999997
 20
-479.2140483333333
 30
0.0
 40
6.515364583333332
  1
DATE
 41
0.7
 11
93.59999999999997
 21
-472.69868375
 31
0.0
100
AcDbText
 73
     3
  0
TEXT
  5
4F
330
914
100
AcDbEntity
  8
HIBINO-BASE
 62
     7
100
AcDbText
 10
53.59999999999997
 20
-479.2140483333333
 30
0.0
 40
6.515364583333332
  1
SCALE
 41
0.7
 11
53.59999999999997
 21
-472.69868375
 31
0.0
100
AcDbText
 73
     3
  0
TEXT
  5
50
330
914
100
AcDbEntity
  8
HIBINO-BASE
 62
     7
100
AcDbText
 10
143.5999999999999
 20
-479.2140483333333
 30
0.0
 40
6.515364583333332
  1
DESIGN
 41
0.7
 11
143.5999999999999
 21
-472.69868375
 31
0.0
100
AcDbText
 73
     3
  0
TEXT
  5
51
330
914
100
AcDbEntity
  8
HIBINO-BASE
 62
     7
100
AcDbText
 10
293.6
 20
-479.2140483333333
 30
0.0
 40
6.515364583333332
  1
DRAWING NO.
 41
0.7
 11
293.6
 21
-472.69868375
 31
0.0
100
AcDbText
 73
     3
  0
TEXT
  5
52
330
914
100
AcDbEntity
  8
HIBINO-BASE
 62
     7
100
AcDbText
 10
243.6
 20
-479.2140483333333
 30
0.0
 40
6.515364583333332
  1
CHECK
 41
0.7
 11
243.6
 21
-472.69868375
 31
0.0
100
AcDbText
 73
     3
  0
LINE
  5
53
330
914
100
AcDbEntity
  8
HIBINO-BASE
  6
Continuous
 62
     7
100
AcDbLine
 10
57.50000000000007
 20
-504.4045549999998
 30
0.0
 11
72.50000000000004
 21
-489.4045549999998
 31
0.0
  0
TEXT
  5
54
330
914
100
AcDbEntity
  8
HIBINO-BASE
 62
     7
100
AcDbText
 10
55.00000000000007
 20
-493.8403283333333
 30
0.0
 40
6.515364583333332
  1
1
 41
0.7
 11
55.00000000000007
 21
-487.3249637499999
 31
0.0
100
AcDbText
 73
     3
  0
LINE
  5
55
330
914
100
AcDbEntity
  8
HIBINO-BASE
  6
Continuous
 62
     7
100
AcDbLine
 10
50.00000000000007
 20
-509.4045549999998
 30
0.0
 11
50.00000000000007
 21
-469.4045549999998
 31
0.0
  0
LINE
  5
56
330
914
100
AcDbEntity
  8
HIBINO-BASE
  6
Continuous
 62
     7
100
AcDbLine
 10
89.99999999999994
 20
-509.4045549999998
 30
0.0
 11
89.99999999999994
 21
-469.4045549999998
 31
0.0
  0
LINE
  5
57
330
914
100
AcDbEntity
  8
HIBINO-BASE
  6
Continuous
 62
     7
100
AcDbLine
 10
190.0
 20
-469.4045549999998
 30
0.0
 11
190.0
 21
-509.4045549999998
 31
0.0
  0
LINE
  5
58
330
914
100
AcDbEntity
  8
HIBINO-BASE
  6
Continuous
 62
     7
100
AcDbLine
 10
290.0000000000001
 20
-469.4045549999998
 30
0.0
 11
290.0000000000001
 21
-509.4045549999998
 31
0.0
  0
LINE
  5
59
330
914
100
AcDbEntity
  8
HIBINO-BASE
  6
Continuous
 62
     7
100
AcDbLine
 10
240.0
 20
-509.4045549999998
 30
0.0
 11
240.0
 21
-469.4045549999998
 31
0.0
  0
TEXT
  5
5A
330
914
100
AcDbEntity
  8
HIBINO-BASE
 62
     7
100
AcDbText
 10
93.42616000000004
 20
-497.9499683333331
 30
0.0
 40
6.515364583333332
  1
'19.11.
 41
0.7
 11
93.42616000000004
 21
-491.4346037499998
 31
0.0
100
AcDbText
 73
     3
  0
TEXT
  5
5B
330
914
100
AcDbEntity
  8
HIBINO-BASE
 62
     7
100
AcDbText
 10
70.00000000000007
 20
-501.3403283333333
 30
0.0
 40
6.515364583333332
  1
4
 41
0.7
 11
70.00000000000007
 21
-494.82496375
 31
0.0
100
AcDbText
 73
     3
  0
TEXT
  5
5C
330
914
100
AcDbEntity
  8
HIBINO-BASE
 62
     7
100
AcDbText
 10
196.0232400441384
 20
-497.9499683333331
 30
0.0
 40
6.515364583333332
  1
N.Sasaki
 41
0.7
 11
196.0232400441384
 21
-491.4346037499998
 31
0.0
100
AcDbText
 73
     3
  0
TEXT
  5
5D
330
914
100
AcDbEntity
  8
HIBINO-BASE
 62
     7
100
AcDbText
 10
15.53333333333347
 20
-501.5005549999998
 30
0.0
 40
13.03072916666666
  1
A4
 41
0.7
 11
15.53333333333347
 21
-488.4698258333332
 31
0.0
100
AcDbText
 73
     3
  0
TEXT
  5
5E
330
914
100
AcDbEntity
  8
HIBINO-BASE
 62
     7
100
AcDbText
 10
3.833333333333312
 20
-479.8823749999999
 30
0.0
 40
6.515364583333332
  1
PAPER SIZE
 41
0.7
 11
3.833333333333313
 21
-473.3670104166665
 31
0.0
100
AcDbText
 73
     3
  0
TEXT
  5
5F
330
914
100
AcDbEntity
  8
HIBINO-BASE
 62
     7
100
AcDbText
 10
-331.2639999999999
 20
-535.0392661999998
 30
0.0
 40
14.40017671875
  1
Hibino Corporation
 41
0.7
 11
-331.2639999999999
 21
-520.6390894812498
 31
0.0
100
AcDbText
 73
     3
  0
TEXT
  5
60
330
914
100
AcDbEntity
  8
HIBINO-BASE
 62
     7
100
AcDbText
 10
200.27356
 20
-535.0392661999998
 30
0.0
 40
14.40017671875
  1
ヒビノ株式会社
 41
0.7
 11
200.27356
 21
-520.6390894812498
 31
0.0
100
AcDbText
 73
     3
  0
LINE
  5
61
330
914
100
AcDbEntity
  8
SPEC
  6
Continuous
 62
     7
100
AcDbLine
 10
-329.9999999999999
 20
490.5954450000002
 30
0.0
 11
318.75
 21
490.5954450000002
 31
0.0
  0
LINE
  5
62
330
914
100
AcDbEntity
  8
SPEC
  6
Continuous
 62
     7
100
AcDbLine
 10
-329.9999999999999
 20
490.5954450000002
 30
0.0
 11
-329.9999999999999
 21
400.5954449999999
 31
0.0
  0
TEXT
  5
63
330
914
100
AcDbEntity
  8
SPEC
 62
     7
100
AcDbText
 10
-324.9999999999999
 20
496.168525
 30
0.0
 40
9.773046875
  1
仕様
 41
0.7
 11
-324.9999999999999
 21
505.941571875
 31
0.0
100
AcDbText
 73
     3
  0
LINE
  5
64
330
914
100
AcDbEntity
  8
SPEC
  6
Continuous
 62
     7
100
AcDbLine
 10
-200.0
 20
490.5954450000002
 30
0.0
 11
-200.0
 21
400.5954449999999
 31
0.0
  0
LINE
  5
65
330
914
100
AcDbEntity
  8
SPEC
  6
Continuous
 62
     7
100
AcDbLine
 10
318.75
 20
490.5954450000002
 30
0.0
 11
318.75
 21
400.5954449999999
 31
0.0
  0
LINE
  5
66
330
914
100
AcDbEntity
  8
SPEC
  6
Continuous
 62
     7
100
AcDbLine
 10
-329.9999999999999
 20
460.5954449999999
 30
0.0
 11
318.75
 21
460.5954449999999
 31
0.0
  0
LINE
  5
67
330
914
100
AcDbEntity
  8
SPEC
  6
Continuous
 62
     7
100
AcDbLine
 10
-329.9999999999999
 20
430.5954449999999
 30
0.0
 11
318.75
 21
430.5954449999999
 31
0.0
  0
LINE
  5
68
330
914
100
AcDbEntity
  8
SPEC
  6
Continuous
 62
     7
100
AcDbLine
 10
-329.9999999999999
 20
400.5954449999999
 30
0.0
 11
318.75
 21
400.5954449999999
 31
0.0
  0
TEXT
  5
69
330
914
100
AcDbEntity
  8
SPEC
 62
     7
100
AcDbText
 10
-326.4
 20
418.747116111111
 30
0.0
 40
7.601258680555555
  1
セット内容
 41
0.7
 11
-326.4
 21
426.3483747916665
 31
0.0
100
AcDbText
 73
     3
  0
TEXT
  5
6A
330
914
100
AcDbEntity
  8
SPEC
 62
     7
100
AcDbText
 10
-326.4
 20
478.747116111111
 30
0.0
 40
7.601258680555555
  1
寸法(W×H×D)
 41
0.7
 11
-326.4
 21
486.3483747916665
 31
0.0
100
AcDbText
 73
     3
  0
TEXT
  5
6B
330
914
100
AcDbEntity
  8
SPEC
 62
     7
100
AcDbText
 10
-196.3999999999999
 20
478.747116111111
 30
0.0
 40
7.601258680555555
  1
壁取付キット:53×72×99mm
 41
0.7
 11
-196.3999999999999
 21
486.3483747916665
 31
0.0
100
AcDbText
 73
     3
  0
TEXT
  5
6C
330
914
100
AcDbEntity
  8
SPEC
 62
     7
100
AcDbText
 10
-196.3999999999999
 20
463.747116111111
 30
0.0
 40
7.601258680555555
  1
電源アダプター壁取付ケース:60×196×38mm
 41
0.7
 11
-196.3999999999999
 21
471.3483747916665
 31
0.0
100
AcDbText
 73
     3
  0
TEXT
  5
6D
330
914
100
AcDbEntity
  8
SPEC
 62
     7
100
AcDbText
 10
-326.4
 20
448.747116111111
 30
0.0
 40
7.601258680555555
  1
質量
 41
0.7
 11
-326.4
 21
456.3483747916666
 31
0.0
100
AcDbText
 73
     3
  0
TEXT
  5
6E
330
914
100
AcDbEntity
  8
SPEC
 62
     7
100
AcDbText
 10
-196.3999999999999
 20
448.747116111111
 30
0.0
 40
7.601258680555555
  1
壁取付キット:70g(片側ワンセット、除壁取付キット固定棒)
 41
0.7
 11
-196.3999999999999
 21
456.3483747916666
 31
0.0
100
AcDbText
 73
     3
  0
TEXT
  5
6F
330
914
100
AcDbEntity
  8
SPEC
 62
     7
100
AcDbText
 10
-196.3999999999999
 20
433.747116111111
 30
0.0
 40
7.601258680555555
  1
電源アダプター壁取付ケース:108ｇ
 41
0.7
 11
-196.3999999999999
 21
441.3483747916665
 31
0.0
100
AcDbText
 73
     3
  0
TEXT
  5
70
330
914
100
AcDbEntity
  8
SPEC
 62
     7
100
AcDbText
 10
-196.3999999999999
 20
418.747116111111
 30
0.0
 40
7.601258680555555
  1
壁取付キット(ベース×2、連結棒×2、連結棒固定ナット×2、スピーカー固定ナット×2、壁取付キット固定棒)、
 41
0.7
 11
-196.3999999999999
 21
426.3483747916665
 31
0.0
100
AcDbText
 73
     3
  0
TEXT
  5
71
330
914
100
AcDbEntity
  8
SPEC
 62
     7
100
AcDbText
 10
-196.3999999999999
 20
403.747116111111
 30
0.0
 40
7.601258680555555
  1
電源アダプター壁取付ケース
 41
0.7
 11
-196.3999999999999
 21
411.3483747916665
 31
0.0
100
AcDbText
 73
     3
  0
TEXT
  5
72
330
914
100
AcDbEntity
  8
DIMNSIONS
 62
     7
100
AcDbText
 10
-79.99999999999997
 20
-460.3265949999998
 30
0.0
 40
9.773046875
  1
(単位：mm)
 41
0.7
 11
-79.99999999999997
 21
-450.5535481249998
 31
0.0
100
AcDbText
 73
     3
  0
TEXT
  5
73
330
914
100
AcDbEntity
  8
DIMNSIONS
 62
     7
100
AcDbText
 10
-80.0
 20
-460.3265949999998
 30
0.0
 40
9.773046875000002
  1
(単位：mm)
 41
0.7
 11
-80.0
 21
-450.5535481249998
 31
0.0
100
AcDbText
 73
     3
  0
LINE
  5
74
330
914
100
AcDbEntity
  8
DIMNSIONS
  6
Continuous
 62
     7
100
AcDbLine
 10
-180.0
 20
50.19999999999989
 30
0.0
 11
-180.0
 21
-4.0000000000001
 31
0.0
  0
LINE
  5
75
330
914
100
AcDbEntity
  8
DIMNSIONS
  6
Continuous
 62
     7
100
AcDbLine
 10
-120.0
 20
50.19999999999989
 30
0.0
 11
-120.0
 21
-4.0000000000001
 31
0.0
  0
LINE
  5
76
330
914
100
AcDbEntity
  8
DIMNSIONS
  6
Continuous
 62
     7
100
AcDbLine
 10
-180.0
 20
-0.0000000000000995
 30
0.0
 11
-120.0
 21
-0.0000000000000995
 31
0.0
  0
LINE
  5
77
330
914
100
AcDbEntity
  8
DIMNSIONS
  6
Continuous
 62
     7
100
AcDbLine
 10
-180.0
 20
-0.0000000000000995
 30
0.0
 11
-172.00048828125
 21
2.143462704882264
 31
0.0
  0
LINE
  5
78
330
914
100
AcDbEntity
  8
DIMNSIONS
  6
Continuous
 62
     7
100
AcDbLine
 10
-180.0
 20
-0.0000000000000995
 30
0.0
 11
-172.00048828125
 21
-2.143462704882463
 31
0.0
  0
LINE
  5
79
330
914
100
AcDbEntity
  8
DIMNSIONS
  6
Continuous
 62
     7
100
AcDbLine
 10
-120.0
 20
-0.0000000000000995
 30
0.0
 11
-127.99951171875
 21
-2.143462704882466
 31
0.0
  0
LINE
  5
7A
330
914
100
AcDbEntity
  8
DIMNSIONS
  6
Continuous
 62
     7
100
AcDbLine
 10
-120.0
 20
-0.0000000000000995
 30
0.0
 11
-127.99951171875
 21
2.143462704882264
 31
0.0
  0
TEXT
  5
7B
330
914
100
AcDbEntity
  8
DIMNSIONS
 62
     7
100
AcDbText
 10
-164.1111111111111
 20
3.975555555555454
 30
0.0
 40
10.85894097222222
  1
60.0
 41
0.7
 11
-164.1111111111111
 21
14.83449652777768
 31
0.0
100
AcDbText
 73
     3
  0
LINE
  5
7C
330
914
100
AcDbEntity
  8
DIMNSIONS
  6
Continuous
 62
     7
100
AcDbLine
 10
-166.8
 20
24.9999999999999
 30
0.0
 11
-204.0
 21
24.9999999999999
 31
0.0
  0
LINE
  5
7D
330
914
100
AcDbEntity
  8
DIMNSIONS
  6
Continuous
 62
     7
100
AcDbLine
 10
-166.8
 20
220.9999999999999
 30
0.0
 11
-204.0
 21
220.9999999999999
 31
0.0
  0
LINE
  5
7E
330
914
100
AcDbEntity
  8
DIMNSIONS
  6
Continuous
 62
     7
100
AcDbLine
 10
-200.0
 20
24.9999999999999
 30
0.0
 11
-200.0
 21
220.9999999999999
 31
0.0
  0
LINE
  5
7F
330
914
100
AcDbEntity
  8
DIMNSIONS
  6
Continuous
 62
     7
100
AcDbLine
 10
-200.0
 20
24.9999999999999
 30
0.0
 11
-202.1434627048824
 21
32.9995117187499
 31
0.0
  0
LINE
  5
80
330
914
100
AcDbEntity
  8
DIMNSIONS
  6
Continuous
 62
     7
100
AcDbLine
 10
-200.0
 20
24.9999999999999
 30
0.0
 11
-197.8565372951176
 21
32.9995117187499
 31
0.0
  0
LINE
  5
81
330
914
100
AcDbEntity
  8
DIMNSIONS
  6
Continuous
 62
     7
100
AcDbLine
 10
-200.0
 20
220.9999999999999
 30
0.0
 11
-197.8565372951176
 21
213.0004882812499
 31
0.0
  0
LINE
  5
82
330
914
100
AcDbEntity
  8
DIMNSIONS
  6
Continuous
 62
     7
100
AcDbLine
 10
-200.0
 20
220.9999999999999
 30
0.0
 11
-202.1434627048824
 21
213.0004882812499
 31
0.0
  0
TEXT
  5
83
330
914
100
AcDbEntity
  8
DIMNSIONS
 62
     7
100
AcDbText
 10
-203.9755555555555
 20
112.4166666666666
 30
0.0
 40
10.85894097222222
  1
196
 50
90.0
 41
0.7
 11
-214.8344965277777
 21
112.4166666666666
 31
0.0
100
AcDbText
 73
     3
  0
LINE
  5
84
330
914
100
AcDbEntity
  8
DIMNSIONS
  6
Continuous
 62
     7
100
AcDbLine
 10
-179.8
 20
288.2999999999998
 30
0.0
 11
-204.0
 21
288.2999999999998
 31
0.0
  0
LINE
  5
85
330
914
100
AcDbEntity
  8
DIMNSIONS
  6
Continuous
 62
     7
100
AcDbLine
 10
-179.8
 20
249.9999999999999
 30
0.0
 11
-204.0
 21
249.9999999999999
 31
0.0
  0
LINE
  5
86
330
914
100
AcDbEntity
  8
DIMNSIONS
  6
Continuous
 62
     7
100
AcDbLine
 10
-200.0
 20
288.2999999999998
 30
0.0
 11
-200.0
 21
249.9999999999999
 31
0.0
  0
LINE
  5
87
330
914
100
AcDbEntity
  8
DIMNSIONS
  6
Continuous
 62
     7
100
AcDbLine
 10
-200.0
 20
288.2999999999998
 30
0.0
 11
-197.8565372951176
 21
280.3004882812498
 31
0.0
  0
LINE
  5
88
330
914
100
AcDbEntity
  8
DIMNSIONS
  6
Continuous
 62
     7
100
AcDbLine
 10
-200.0
 20
288.2999999999998
 30
0.0
 11
-202.1434627048824
 21
280.3004882812498
 31
0.0
  0
LINE
  5
89
330
914
100
AcDbEntity
  8
DIMNSIONS
  6
Continuous
 62
     7
100
AcDbLine
 10
-200.0
 20
249.9999999999999
 30
0.0
 11
-202.1434627048824
 21
257.9995117187499
 31
0.0
  0
LINE
  5
8A
330
914
100
AcDbEntity
  8
DIMNSIONS
  6
Continuous
 62
     7
100
AcDbLine
 10
-200.0
 20
249.9999999999999
 30
0.0
 11
-197.8565372951176
 21
257.9995117187499
 31
0.0
  0
TEXT
  5
8B
330
914
100
AcDbEntity
  8
DIMNSIONS
 62
     7
100
AcDbText
 10
-203.9755555555555
 20
255.0388888888888
 30
0.0
 40
10.85894097222222
  1
38.3
 50
90.0
 41
0.7
 11
-214.8344965277777
 21
255.0388888888888
 31
0.0
100
AcDbText
 73
     3
  0
LINE
  5
8C
330
914
100
AcDbEntity
  8
DIMNSIONS
  6
Continuous
 62
     7
100
AcDbLine
 10
-123.75
 20
-290.8000000000001
 30
0.0
 11
-123.75
 21
-316.5
 31
0.0
  0
LINE
  5
8D
330
914
100
AcDbEntity
  8
DIMNSIONS
  6
Continuous
 62
     7
100
AcDbLine
 10
-176.25
 20
-290.8000000000001
 30
0.0
 11
-176.25
 21
-316.5
 31
0.0
  0
LINE
  5
8E
330
914
100
AcDbEntity
  8
DIMNSIONS
  6
Continuous
 62
     7
100
AcDbLine
 10
-176.25
 20
-312.5
 30
0.0
 11
-209.4722222222223
 21
-312.5
 31
0.0
  0
LINE
  5
8F
330
914
100
AcDbEntity
  8
DIMNSIONS
  6
Continuous
 62
     7
100
AcDbLine
 10
-123.75
 20
-312.5
 30
0.0
 11
-176.25
 21
-312.5
 31
0.0
  0
LINE
  5
90
330
914
100
AcDbEntity
  8
DIMNSIONS
  6
Continuous
 62
     7
100
AcDbLine
 10
-123.75
 20
-312.5
 30
0.0
 11
-131.74951171875
 21
-314.6434627048825
 31
0.0
  0
LINE
  5
91
330
914
100
AcDbEntity
  8
DIMNSIONS
  6
Continuous
 62
     7
100
AcDbLine
 10
-123.75
 20
-312.5
 30
0.0
 11
-131.74951171875
 21
-310.3565372951177
 31
0.0
  0
LINE
  5
92
330
914
100
AcDbEntity
  8
DIMNSIONS
  6
Continuous
 62
     7
100
AcDbLine
 10
-176.25
 20
-312.5
 30
0.0
 11
-168.25048828125
 21
-310.3565372951177
 31
0.0
  0
LINE
  5
93
330
914
100
AcDbEntity
  8
DIMNSIONS
  6
Continuous
 62
     7
100
AcDbLine
 10
-176.25
 20
-312.5
 30
0.0
 11
-168.25048828125
 21
-314.6434627048825
 31
0.0
  0
TEXT
  5
94
330
914
100
AcDbEntity
  8
DIMNSIONS
 62
     7
100
AcDbText
 10
-209.4722222222223
 20
-308.5244444444446
 30
0.0
 40
10.85894097222222
  1
52.5
 41
0.7
 11
-209.4722222222223
 21
-297.6655034722224
 31
0.0
100
AcDbText
 73
     3
  0
LINE
  5
95
330
914
100
AcDbEntity
  8
DIMNSIONS
  6
Continuous
 62
     7
100
AcDbLine
 10
-181.05
 20
-214.0000000000001
 30
0.0
 11
-193.8177313259562
 21
-214.0000000000001
 31
0.0
  0
LINE
  5
96
330
914
100
AcDbEntity
  8
DIMNSIONS
  6
Continuous
 62
     7
100
AcDbLine
 10
-181.05
 20
-286.0000000000001
 30
0.0
 11
-193.8177313259562
 21
-286.0000000000001
 31
0.0
  0
LINE
  5
97
330
914
100
AcDbEntity
  8
DIMNSIONS
  6
Continuous
 62
     7
100
AcDbLine
 10
-189.8177313259562
 20
-214.0000000000001
 30
0.0
 11
-189.8177313259562
 21
-286.0000000000001
 31
0.0
  0
LINE
  5
98
330
914
100
AcDbEntity
  8
DIMNSIONS
  6
Continuous
 62
     7
100
AcDbLine
 10
-189.8177313259562
 20
-214.0000000000001
 30
0.0
 11
-187.6742686210738
 21
-221.9995117187501
 31
0.0
  0
LINE
  5
99
330
914
100
AcDbEntity
  8
DIMNSIONS
  6
Continuous
 62
     7
100
AcDbLine
 10
-189.8177313259562
 20
-214.0000000000001
 30
0.0
 11
-191.9611940308385
 21
-221.9995117187501
 31
0.0
  0
LINE
  5
9A
330
914
100
AcDbEntity
  8
DIMNSIONS
  6
Continuous
 62
     7
100
AcDbLine
 10
-189.8177313259562
 20
-286.0000000000001
 30
0.0
 11
-191.9611940308385
 21
-278.0004882812501
 31
0.0
  0
LINE
  5
9B
330
914
100
AcDbEntity
  8
DIMNSIONS
  6
Continuous
 62
     7
100
AcDbLine
 10
-189.8177313259562
 20
-286.0000000000001
 30
0.0
 11
-187.6742686210738
 21
-278.0004882812501
 31
0.0
  0
TEXT
  5
9C
330
914
100
AcDbEntity
  8
DIMNSIONS
 62
     7
100
AcDbText
 10
-193.7932868815117
 20
-264.1111111111112
 30
0.0
 40
10.85894097222222
  1
72.0
 50
90.0
 41
0.7
 11
-204.652227853734
 21
-264.1111111111112
 31
0.0
100
AcDbText
 73
     3
  0
LINE
  5
9D
330
914
100
AcDbEntity
  8
DIMNSIONS
  6
Continuous
 62
     7
100
AcDbLine
 10
-181.05
 20
-107.2500000000001
 30
0.0
 11
-194.106406460551
 21
-107.2500000000001
 31
0.0
  0
LINE
  5
9E
330
914
100
AcDbEntity
  8
DIMNSIONS
  6
Continuous
 62
     7
100
AcDbLine
 10
-157.8499999999988
 20
-206.2500000000001
 30
0.0
 11
-194.106406460551
 21
-206.2500000000001
 31
0.0
  0
LINE
  5
9F
330
914
100
AcDbEntity
  8
DIMNSIONS
  6
Continuous
 62
     7
100
AcDbLine
 10
-190.106406460551
 20
-107.2500000000001
 30
0.0
 11
-190.106406460551
 21
-206.2500000000001
 31
0.0
  0
LINE
  5
A0
330
914
100
AcDbEntity
  8
DIMNSIONS
  6
Continuous
 62
     7
100
AcDbLine
 10
-190.106406460551
 20
-107.2500000000001
 30
0.0
 11
-187.9629437556686
 21
-115.2495117187501
 31
0.0
  0
LINE
  5
A1
330
914
100
AcDbEntity
  8
DIMNSIONS
  6
Continuous
 62
     7
100
AcDbLine
 10
-190.106406460551
 20
-107.2500000000001
 30
0.0
 11
-192.2498691654333
 21
-115.2495117187501
 31
0.0
  0
LINE
  5
A2
330
914
100
AcDbEntity
  8
DIMNSIONS
  6
Continuous
 62
     7
100
AcDbLine
 10
-190.106406460551
 20
-206.2500000000001
 30
0.0
 11
-192.2498691654333
 21
-198.2504882812501
 31
0.0
  0
LINE
  5
A3
330
914
100
AcDbEntity
  8
DIMNSIONS
  6
Continuous
 62
     7
100
AcDbLine
 10
-190.106406460551
 20
-206.2500000000001
 30
0.0
 11
-187.9629437556686
 21
-198.2504882812501
 31
0.0
  0
TEXT
  5
A4
330
914
100
AcDbEntity
  8
DIMNSIONS
 62
     7
100
AcDbText
 10
-194.0819620161066
 20
-170.8611111111111
 30
0.0
 40
10.85894097222222
  1
99.0
 50
90.0
 41
0.7
 11
-204.9409029883288
 21
-170.8611111111111
 31
0.0
100
AcDbText
 73
     3
  0
LINE
  5
A5
330
914
100
AcDbEntity
  8
DIMNSIONS
  6
Continuous
 62
     7
100
AcDbLine
 10
-129.2
 20
-221.5
 30
0.0
 11
-102.25
 21
-221.5
 31
0.0
  0
LINE
  5
A6
330
914
100
AcDbEntity
  8
DIMNSIONS
  6
Continuous
 62
     7
100
AcDbLine
 10
-129.2
 20
-278.5
 30
0.0
 11
-102.25
 21
-278.5
 31
0.0
  0
LINE
  5
A7
330
914
100
AcDbEntity
  8
DIMNSIONS
  6
Continuous
 62
     7
100
AcDbLine
 10
-106.25
 20
-221.5
 30
0.0
 11
-106.25
 21
-216.25
 31
0.0
  0
LINE
  5
A8
330
914
100
AcDbEntity
  8
DIMNSIONS
  6
Continuous
 62
     7
100
AcDbLine
 10
-106.25
 20
-221.5
 30
0.0
 11
-106.25
 21
-278.5
 31
0.0
  0
LINE
  5
A9
330
914
100
AcDbEntity
  8
DIMNSIONS
  6
Continuous
 62
     7
100
AcDbLine
 10
-106.25
 20
-221.5
 30
0.0
 11
-104.1065372951176
 21
-229.49951171875
 31
0.0
  0
LINE
  5
AA
330
914
100
AcDbEntity
  8
DIMNSIONS
  6
Continuous
 62
     7
100
AcDbLine
 10
-106.25
 20
-221.5
 30
0.0
 11
-108.3934627048823
 21
-229.49951171875
 31
0.0
  0
LINE
  5
AB
330
914
100
AcDbEntity
  8
DIMNSIONS
  6
Continuous
 62
     7
100
AcDbLine
 10
-106.25
 20
-278.5
 30
0.0
 11
-108.3934627048823
 21
-270.50048828125
 31
0.0
  0
LINE
  5
AC
330
914
100
AcDbEntity
  8
DIMNSIONS
  6
Continuous
 62
     7
100
AcDbLine
 10
-106.25
 20
-278.5
 30
0.0
 11
-104.1065372951176
 21
-270.50048828125
 31
0.0
  0
TEXT
  5
AD
330
914
100
AcDbEntity
  8
DIMNSIONS
 62
     7
100
AcDbText
 10
-101.17
 20
-216.25
 30
0.0
 40
10.85894097222222
  1
57.0
 50
90.0
 41
0.7
 11
-112.0289409722222
 21
-216.25
 31
0.0
100
AcDbText
 73
     3
  0
LINE
  5
AE
330
914
100
AcDbEntity
  8
DIMNSIONS
  6
Continuous
 62
     7
100
AcDbLine
 10
-166.0
 20
-283.2494897427832
 30
0.0
 11
-166.0
 21
-310.25
 31
0.0
  0
LINE
  5
AF
330
914
100
AcDbEntity
  8
DIMNSIONS
  6
Continuous
 62
     7
100
AcDbLine
 10
-134.0
 20
-283.3
 30
0.0
 11
-134.0
 21
-310.25
 31
0.0
  0
LINE
  5
B0
330
914
100
AcDbEntity
  8
DIMNSIONS
  6
Continuous
 62
     7
100
AcDbLine
 10
-134.0
 20
-306.25
 30
0.0
 11
-119.25
 21
-306.25
 31
0.0
  0
LINE
  5
B1
330
914
100
AcDbEntity
  8
DIMNSIONS
  6
Continuous
 62
     7
100
AcDbLine
 10
-166.0
 20
-306.25
 30
0.0
 11
-134.0
 21
-306.25
 31
0.0
  0
LINE
  5
B2
330
914
100
AcDbEntity
  8
DIMNSIONS
  6
Continuous
 62
     7
100
AcDbLine
 10
-166.0
 20
-306.25
 30
0.0
 11
-158.00048828125
 21
-304.1065372951177
 31
0.0
  0
LINE
  5
B3
330
914
100
AcDbEntity
  8
DIMNSIONS
  6
Continuous
 62
     7
100
AcDbLine
 10
-166.0
 20
-306.25
 30
0.0
 11
-158.00048828125
 21
-308.3934627048825
 31
0.0
  0
LINE
  5
B4
330
914
100
AcDbEntity
  8
DIMNSIONS
  6
Continuous
 62
     7
100
AcDbLine
 10
-134.0
 20
-306.25
 30
0.0
 11
-141.99951171875
 21
-308.3934627048825
 31
0.0
  0
LINE
  5
B5
330
914
100
AcDbEntity
  8
DIMNSIONS
  6
Continuous
 62
     7
100
AcDbLine
 10
-134.0
 20
-306.25
 30
0.0
 11
-141.99951171875
 21
-304.1065372951177
 31
0.0
  0
TEXT
  5
B6
330
914
100
AcDbEntity
  8
DIMNSIONS
 62
     7
100
AcDbText
 10
-119.25
 20
-311.3300000000001
 30
0.0
 40
10.85894097222222
  1
32.0
 41
0.7
 11
-119.25
 21
-300.4710590277779
 31
0.0
100
AcDbText
 73
     3
  0
LINE
  5
B7
330
914
100
AcDbEntity
  8
DIMNSIONS
  6
Continuous
 62
     7
100
AcDbLine
 10
51.5
 20
-300.8000000000001
 30
0.0
 11
51.5
 21
-322.75
 31
0.0
  0
LINE
  5
B8
330
914
100
AcDbEntity
  8
DIMNSIONS
  6
Continuous
 62
     7
100
AcDbLine
 10
148.5
 20
-300.8000000000001
 30
0.0
 11
148.5
 21
-322.75
 31
0.0
  0
LINE
  5
B9
330
914
100
AcDbEntity
  8
DIMNSIONS
  6
Continuous
 62
     7
100
AcDbLine
 10
51.5
 20
-318.75
 30
0.0
 11
148.5
 21
-318.75
 31
0.0
  0
LINE
  5
BA
330
914
100
AcDbEntity
  8
DIMNSIONS
  6
Continuous
 62
     7
100
AcDbLine
 10
51.5
 20
-318.75
 30
0.0
 11
59.49951171875
 21
-316.6065372951177
 31
0.0
  0
LINE
  5
BB
330
914
100
AcDbEntity
  8
DIMNSIONS
  6
Continuous
 62
     7
100
AcDbLine
 10
51.5
 20
-318.75
 30
0.0
 11
59.49951171875
 21
-320.8934627048825
 31
0.0
  0
LINE
  5
BC
330
914
100
AcDbEntity
  8
DIMNSIONS
  6
Continuous
 62
     7
100
AcDbLine
 10
148.5
 20
-318.75
 30
0.0
 11
140.50048828125
 21
-320.8934627048825
 31
0.0
  0
LINE
  5
BD
330
914
100
AcDbEntity
  8
DIMNSIONS
  6
Continuous
 62
     7
100
AcDbLine
 10
148.5
 20
-318.75
 30
0.0
 11
140.50048828125
 21
-316.6065372951177
 31
0.0
  0
TEXT
  5
BE
330
914
100
AcDbEntity
  8
DIMNSIONS
 62
     7
100
AcDbText
 10
85.88888888888886
 20
-314.7744444444446
 30
0.0
 40
10.85894097222222
  1
97.0
 41
0.7
 11
85.88888888888886
 21
-303.9155034722224
 31
0.0
100
AcDbText
 73
     3
  0
LINE
  5
BF
330
914
100
AcDbEntity
  8
DIMNSIONS
  6
Continuous
 62
     7
100
AcDbLine
 10
157.3615211671258
 20
-291.7937227458589
 30
0.0
 11
162.5000000000001
 21
-282.75
 31
0.0
  0
LINE
  5
C0
330
914
100
AcDbEntity
  8
DIMNSIONS
  6
Continuous
 62
     7
100
AcDbLine
 10
157.3615211671258
 20
-291.7937227458589
 30
0.0
 11
159.5049838720082
 21
-283.7942110271089
 31
0.0
  0
LINE
  5
C1
330
914
100
AcDbEntity
  8
DIMNSIONS
  6
Continuous
 62
     7
100
AcDbLine
 10
157.3615211671258
 20
-291.7937227458589
 30
0.0
 11
163.2175701809934
 21
-285.9376737319912
 31
0.0
  0
LINE
  5
C2
330
914
100
AcDbEntity
  8
DIMNSIONS
  6
Continuous
 62
     7
100
AcDbLine
 10
162.5000000000001
 20
-282.75
 30
0.0
 11
170.5000000000001
 21
-282.75
 31
0.0
  0
TEXT
  5
C3
330
914
100
AcDbEntity
  8
DIMNSIONS
 62
     7
100
AcDbText
 10
170.5000000000001
 20
-287.8300000000002
 30
0.0
 40
10.85894097222222
  1
φ4.5
 41
0.7
 11
170.5000000000001
 21
-276.971059027778
 31
0.0
100
AcDbText
 73
     3
  0
TEXT
  5
C4
330
914
100
AcDbEntity
  8
DIMNSIONS
 62
     7
100
AcDbText
 10
-91.02777777777777
 20
-302.7504444444444
 30
0.0
 40
7.601258680555555
  1
※
 41
0.7
 11
-91.02777777777777
 21
-295.1491857638889
 31
0.0
100
AcDbText
 73
     3
  0
TEXT
  5
C5
330
914
100
AcDbEntity
  8
DIMNSIONS
 62
     7
100
AcDbText
 10
-109.7495555555555
 20
-188.0277777777777
 30
0.0
 40
7.601258680555555
  1
※
 50
90.0
 41
0.7
 11
-117.3508142361111
 21
-188.0277777777777
 31
0.0
100
AcDbText
 73
     3
  0
LINE
  5
C6
330
914
100
AcDbEntity
  8
DIMNSIONS
  6
Continuous
 62
     7
100
AcDbLine
 10
-133.114239942673
 20
-280.837825725076
 30
0.0
 11
-118.75
 21
-318.75
 31
0.0
  0
LINE
  5
C7
330
914
100
AcDbEntity
  8
DIMNSIONS
  6
Continuous
 62
     7
100
AcDbLine
 10
-133.114239942673
 20
-280.837825725076
 30
0.0
 11
-128.2463765044561
 21
-287.5378649527605
 31
0.0
  0
LINE
  5
C8
330
914
100
AcDbEntity
  8
DIMNSIONS
  6
Continuous
 62
     7
100
AcDbLine
 10
-133.114239942673
 20
-280.837825725076
 30
0.0
 11
-132.248566156866
 21
-289.0741616217115
 31
0.0
  0
LINE
  5
C9
330
914
100
AcDbEntity
  8
DIMNSIONS
  6
Continuous
 62
     7
100
AcDbLine
 10
-118.75
 20
-318.75
 30
0.0
 11
-110.75
 21
-318.75
 31
0.0
  0
TEXT
  5
CA
330
914
100
AcDbEntity
  8
DIMNSIONS
 62
     7
100
AcDbText
 10
-110.75
 20
-323.8300000000001
 30
0.0
 40
10.85894097222222
  1
φ5.0(4ヵ所)
 41
0.7
 11
-110.75
 21
-312.9710590277778
 31
0.0
100
AcDbText
 73
     3
  0
TEXT
  5
CB
330
914
100
AcDbEntity
  8
DIMNSIONS
 62
     7
100
AcDbText
 10
30.0
 20
-405.7863630000001
 30
0.0
 40
10.85894097222222
  1
※センター振り分け
 41
0.7
 11
30.0
 21
-394.9274220277779
 31
0.0
100
AcDbText
 73
     3
  0
LINE
  5
CC
330
914
100
AcDbEntity
  8
DIMNSIONS
  6
Continuous
 62
     7
100
AcDbLine
 10
4.799999999999999
 20
212.5389065168986
 30
0.0
 11
72.75
 21
212.5389065168986
 31
0.0
  0
LINE
  5
CD
330
914
100
AcDbEntity
  8
DIMNSIONS
  6
Continuous
 62
     7
100
AcDbLine
 10
4.799999999999999
 20
46.53890651689859
 30
0.0
 11
72.75
 21
46.53890651689859
 31
0.0
  0
LINE
  5
CE
330
914
100
AcDbEntity
  8
DIMNSIONS
  6
Continuous
 62
     7
100
AcDbLine
 10
68.75
 20
212.5389065168986
 30
0.0
 11
68.75
 21
46.53890651689859
 31
0.0
  0
LINE
  5
CF
330
914
100
AcDbEntity
  8
DIMNSIONS
  6
Continuous
 62
     7
100
AcDbLine
 10
68.75
 20
212.5389065168986
 30
0.0
 11
70.89346270488237
 21
204.5393947981486
 31
0.0
  0
LINE
  5
D0
330
914
100
AcDbEntity
  8
DIMNSIONS
  6
Continuous
 62
     7
100
AcDbLine
 10
68.75
 20
212.5389065168986
 30
0.0
 11
66.60653729511763
 21
204.5393947981486
 31
0.0
  0
LINE
  5
D1
330
914
100
AcDbEntity
  8
DIMNSIONS
  6
Continuous
 62
     7
100
AcDbLine
 10
68.75
 20
46.53890651689859
 30
0.0
 11
66.60653729511763
 21
54.53841823564859
 31
0.0
  0
LINE
  5
D2
330
914
100
AcDbEntity
  8
DIMNSIONS
  6
Continuous
 62
     7
100
AcDbLine
 10
68.75
 20
46.53890651689859
 30
0.0
 11
70.89346270488237
 21
54.53841823564859
 31
0.0
  0
TEXT
  5
D3
330
914
100
AcDbEntity
  8
DIMNSIONS
 62
     7
100
AcDbText
 10
64.77444444444444
 20
118.9555731835653
 30
0.0
 40
10.85894097222222
  1
166
 50
90.0
 41
0.7
 11
53.91550347222221
 21
118.9555731835653
 31
0.0
100
AcDbText
 73
     3
  0
LINE
  5
D4
330
914
100
AcDbEntity
  8
DIMNSIONS
  6
Continuous
 62
     7
100
AcDbLine
 10
4.799999999999999
 20
212.5389065168986
 30
0.0
 11
72.75
 21
212.5389065168986
 31
0.0
  0
LINE
  5
D5
330
914
100
AcDbEntity
  8
DIMNSIONS
  6
Continuous
 62
     7
100
AcDbLine
 10
17.00412098479164
 20
220.9999999999999
 30
0.0
 11
72.75
 21
220.9999999999999
 31
0.0
  0
LINE
  5
D6
330
914
100
AcDbEntity
  8
DIMNSIONS
  6
Continuous
 62
     7
100
AcDbLine
 10
68.75
 20
220.9999999999999
 30
0.0
 11
68.75
 21
212.5389065168986
 31
0.0
  0
LINE
  5
D7
330
914
100
AcDbEntity
  8
DIMNSIONS
  6
Continuous
 62
     7
100
AcDbLine
 10
68.75
 20
212.5389065168986
 30
0.0
 11
68.75
 21
198.5389065168986
 31
0.0
  0
LINE
  5
D8
330
914
100
AcDbEntity
  8
DIMNSIONS
  6
Continuous
 62
     7
100
AcDbLine
 10
68.75
 20
212.5389065168986
 30
0.0
 11
70.89346270488237
 21
204.5393947981486
 31
0.0
  0
LINE
  5
D9
330
914
100
AcDbEntity
  8
DIMNSIONS
  6
Continuous
 62
     7
100
AcDbLine
 10
68.75
 20
212.5389065168986
 30
0.0
 11
66.60653729511763
 21
204.5393947981486
 31
0.0
  0
LINE
  5
DA
330
914
100
AcDbEntity
  8
DIMNSIONS
  6
Continuous
 62
     7
100
AcDbLine
 10
68.75
 20
220.9999999999999
 30
0.0
 11
68.75
 21
246.1666666666666
 31
0.0
  0
LINE
  5
DB
330
914
100
AcDbEntity
  8
DIMNSIONS
  6
Continuous
 62
     7
100
AcDbLine
 10
68.75
 20
220.9999999999999
 30
0.0
 11
66.60653729511763
 21
228.9995117187499
 31
0.0
  0
LINE
  5
DC
330
914
100
AcDbEntity
  8
DIMNSIONS
  6
Continuous
 62
     7
100
AcDbLine
 10
68.75
 20
220.9999999999999
 30
0.0
 11
70.89346270488237
 21
228.9995117187499
 31
0.0
  0
TEXT
  5
DD
330
914
100
AcDbEntity
  8
DIMNSIONS
 62
     7
100
AcDbText
 10
64.77444444444444
 20
225.0
 30
0.0
 40
10.85894097222222
  1
8.5
 50
90.0
 41
0.7
 11
53.91550347222221
 21
225.0
 31
0.0
100
AcDbText
 73
     3
  0
LINE
  5
DE
330
914
100
AcDbEntity
  8
DIMNSIONS
  6
Continuous
 62
     7
100
AcDbLine
 10
-2.210000000000036
 20
334.5399999999999
 30
0.0
 11
-2.210000000000036
 21
352.4510934831012
 31
0.0
  0
LINE
  5
DF
330
914
100
AcDbEntity
  8
DIMNSIONS
  6
Continuous
 62
     7
100
AcDbLine
 10
2.210000000000036
 20
334.5399999999999
 30
0.0
 11
2.210000000000036
 21
352.4510934831012
 31
0.0
  0
LINE
  5
E0
330
914
100
AcDbEntity
  8
DIMNSIONS
  6
Continuous
 62
     7
100
AcDbLine
 10
2.210000000000036
 20
348.4510934831012
 30
0.0
 11
-2.210000000000036
 21
348.4510934831012
 31
0.0
  0
LINE
  5
E1
330
914
100
AcDbEntity
  8
DIMNSIONS
  6
Continuous
 62
     7
100
AcDbLine
 10
-2.210000000000036
 20
348.4510934831012
 30
0.0
 11
-16.21000000000003
 21
348.4510934831012
 31
0.0
  0
LINE
  5
E2
330
914
100
AcDbEntity
  8
DIMNSIONS
  6
Continuous
 62
     7
100
AcDbLine
 10
-2.210000000000036
 20
348.4510934831012
 30
0.0
 11
-10.20951171875003
 21
346.3076307782188
 31
0.0
  0
LINE
  5
E3
330
914
100
AcDbEntity
  8
DIMNSIONS
  6
Continuous
 62
     7
100
AcDbLine
 10
-2.210000000000036
 20
348.4510934831012
 30
0.0
 11
-10.20951171875003
 21
350.5945561879836
 31
0.0
  0
LINE
  5
E4
330
914
100
AcDbEntity
  8
DIMNSIONS
  6
Continuous
 62
     7
100
AcDbLine
 10
2.210000000000036
 20
348.4510934831012
 30
0.0
 11
27.41666666666669
 21
348.4510934831012
 31
0.0
  0
LINE
  5
E5
330
914
100
AcDbEntity
  8
DIMNSIONS
  6
Continuous
 62
     7
100
AcDbLine
 10
2.210000000000036
 20
348.4510934831012
 30
0.0
 11
10.20951171875003
 21
350.5945561879836
 31
0.0
  0
LINE
  5
E6
330
914
100
AcDbEntity
  8
DIMNSIONS
  6
Continuous
 62
     7
100
AcDbLine
 10
2.210000000000036
 20
348.4510934831012
 30
0.0
 11
10.20951171875003
 21
346.3076307782188
 31
0.0
  0
TEXT
  5
E7
330
914
100
AcDbEntity
  8
DIMNSIONS
 62
     7
100
AcDbText
 10
6.250000000000027
 20
352.4266490386567
 30
0.0
 40
10.85894097222222
  1
4.4
 41
0.7
 11
6.250000000000028
 21
363.2855900108789
 31
0.0
100
AcDbText
 73
     3
  0
LINE
  5
E8
330
914
100
AcDbEntity
  8
DIMNSIONS
  6
Continuous
 62
     7
100
AcDbLine
 10
4.799999999999999
 20
318.7499999999999
 30
0.0
 11
28.99999999999998
 21
318.7499999999999
 31
0.0
  0
LINE
  5
E9
330
914
100
AcDbEntity
  8
DIMNSIONS
  6
Continuous
 62
     7
100
AcDbLine
 10
4.799999999999999
 20
329.7399999999999
 30
0.0
 11
28.99999999999998
 21
329.7399999999999
 31
0.0
  0
LINE
  5
EA
330
914
100
AcDbEntity
  8
DIMNSIONS
  6
Continuous
 62
     7
100
AcDbLine
 10
24.99999999999999
 20
329.7399999999999
 30
0.0
 11
24.99999999999999
 21
318.7499999999999
 31
0.0
  0
LINE
  5
EB
330
914
100
AcDbEntity
  8
DIMNSIONS
  6
Continuous
 62
     7
100
AcDbLine
 10
24.99999999999999
 20
318.7499999999999
 30
0.0
 11
24.99999999999999
 21
286.041006321814
 31
0.0
  0
LINE
  5
EC
330
914
100
AcDbEntity
  8
DIMNSIONS
  6
Continuous
 62
     7
100
AcDbLine
 10
24.99999999999999
 20
318.7499999999999
 30
0.0
 11
27.14346270488235
 21
310.7504882812499
 31
0.0
  0
LINE
  5
ED
330
914
100
AcDbEntity
  8
DIMNSIONS
  6
Continuous
 62
     7
100
AcDbLine
 10
24.99999999999999
 20
318.7499999999999
 30
0.0
 11
22.85653729511761
 21
310.7504882812499
 31
0.0
  0
LINE
  5
EE
330
914
100
AcDbEntity
  8
DIMNSIONS
  6
Continuous
 62
     7
100
AcDbLine
 10
24.99999999999999
 20
329.7399999999999
 30
0.0
 11
24.99999999999999
 21
343.7399999999998
 31
0.0
  0
LINE
  5
EF
330
914
100
AcDbEntity
  8
DIMNSIONS
  6
Continuous
 62
     7
100
AcDbLine
 10
24.99999999999999
 20
329.7399999999999
 30
0.0
 11
22.85653729511761
 21
337.7395117187499
 31
0.0
  0
LINE
  5
F0
330
914
100
AcDbEntity
  8
DIMNSIONS
  6
Continuous
 62
     7
100
AcDbLine
 10
24.99999999999999
 20
329.7399999999999
 30
0.0
 11
27.14346270488235
 21
337.7395117187499
 31
0.0
  0
TEXT
  5
F1
330
914
100
AcDbEntity
  8
DIMNSIONS
 62
     7
100
AcDbText
 10
21.02444444444443
 20
286.041006321814
 30
0.0
 40
10.85894097222222
  1
11.0
 50
90.0
 41
0.7
 11
10.1655034722222
 21
286.041006321814
 31
0.0
100
AcDbText
 73
     3
  0
LINE
  5
F2
330
914
100
AcDbEntity
  8
DIMNSIONS
  6
Continuous
 62
     7
100
AcDbLine
 10
5.393193716300174
 20
319.8286387432599
 30
0.0
 11
31.25000000000011
 21
324.9999999999999
 31
0.0
  0
LINE
  5
F3
330
914
100
AcDbEntity
  8
DIMNSIONS
  6
Continuous
 62
     7
100
AcDbLine
 10
5.393193716300174
 20
319.8286387432599
 30
0.0
 11
12.83673990838762
 21
323.4590987956362
 31
0.0
  0
LINE
  5
F4
330
914
100
AcDbEntity
  8
DIMNSIONS
  6
Continuous
 62
     7
100
AcDbLine
 10
5.393193716300174
 20
319.8286387432599
 30
0.0
 11
13.65472383907901
 21
319.2509362799988
 31
0.0
  0
LINE
  5
F5
330
914
100
AcDbEntity
  8
DIMNSIONS
  6
Continuous
 62
     7
100
AcDbLine
 10
31.25000000000011
 20
324.9999999999999
 30
0.0
 11
39.2500000000001
 21
324.9999999999999
 31
0.0
  0
TEXT
  5
F6
330
914
100
AcDbEntity
  8
DIMNSIONS
 62
     7
100
AcDbText
 10
39.25000000000009
 20
319.9199999999998
 30
0.0
 40
10.85894097222222
  1
φ11.0
 41
0.7
 11
39.25000000000009
 21
330.7789409722221
 31
0.0
100
AcDbText
 73
     3
  0
TEXT
  5
F7
330
914
100
AcDbEntity
  8
DATA
 62
     7
100
AcDbText
 10
-350.0
 20
-477.8994438888887
 30
0.0
 40
7.601258680555555
  1
●仕様及び外観は予告なく変更されることがあります。
 41
0.7
 11
-350.0
 21
-470.2981852083332
 31
0.0
100
AcDbText
 73
     3
  0
TEXT
  5
F8
330
914
100
AcDbEntity
  8
DATA
 62
     7
100
AcDbText
 10
-350.0
 20
-487.7772216666666
 30
0.0
 40
7.601258680555555
  1
　また、同一商品でも若干の個体差があることがあります。ご了承ください。
 41
0.7
 11
-350.0
 21
-480.175962986111
 31
0.0
100
AcDbText
 73
     3
  0
TEXT
  5
F9
330
914
100
AcDbEntity
  8
DATA
 62
     7
100
AcDbText
 10
200.0
 20
-435.8809949999997
 30
0.0
 40
9.773046875
  1
JBL PROFESSIONAL
 41
0.7
 11
200.0
 21
-426.1079481249997
 31
0.0
100
AcDbText
 73
     3
  0
LINE
  5
FA
330
914
100
AcDbEntity
  8
DATA
  6
Continuous
 62
     7
100
AcDbLine
 10
-180.0
 20
54.99999999999989
 30
0.0
 11
-180.0
 21
179.9999999999999
 31
0.0
  0
LINE
  5
FB
330
914
100
AcDbEntity
  8
DATA
  6
Continuous
 62
     7
100
AcDbLine
 10
-120.0
 20
179.9999999999999
 30
0.0
 11
-120.0
 21
54.99999999999989
 31
0.0
  0
LINE
  5
FC
330
914
100
AcDbEntity
  8
DATA
  6
Continuous
 62
     7
100
AcDbLine
 10
-162.2041209847916
 20
220.9999999999999
 30
0.0
 11
-137.7958790152083
 21
220.9999999999999
 31
0.0
  0
LINE
  5
FD
330
914
100
AcDbEntity
  8
DATA
  6
Continuous
 62
     7
100
AcDbLine
 10
-100.0
 20
54.99999999999989
 30
0.0
 11
-100.0
 21
147.9999999999999
 31
0.0
  0
LINE
  5
FE
330
914
100
AcDbEntity
  8
DATA
  6
Continuous
 62
     7
100
AcDbLine
 10
-61.0
 20
24.9999999999999
 30
0.0
 11
-61.79999999999972
 21
24.9999999999999
 31
0.0
  0
LINE
  5
FF
330
914
100
AcDbEntity
  8
DATA
  6
Continuous
 62
     7
100
AcDbLine
 10
-61.0
 20
220.9999999999999
 30
0.0
 11
-61.0
 21
24.9999999999999
 31
0.0
  0
LINE
  5
100
330
914
100
AcDbEntity
  8
DATA
  6
Continuous
 62
     7
100
AcDbLine
 10
-77.0
 20
137.4999999999999
 30
0.0
 11
-77.0
 21
67.4999999999999
 31
0.0
  0
LINE
  5
101
330
914
100
AcDbEntity
  8
DATA
  6
Continuous
 62
     7
100
AcDbLine
 10
-85.0
 20
137.4999999999999
 30
0.0
 11
-85.0
 21
67.4999999999999
 31
0.0
  0
LINE
  5
102
330
914
100
AcDbEntity
  8
DATA
  6
Continuous
 62
     7
100
AcDbLine
 10
-85.0
 20
137.4999999999999
 30
0.0
 11
-77.0
 21
137.4999999999999
 31
0.0
  0
LINE
  5
103
330
914
100
AcDbEntity
  8
DATA
  6
Continuous
 62
     7
100
AcDbLine
 10
-85.0
 20
67.4999999999999
 30
0.0
 11
-77.0
 21
67.4999999999999
 31
0.0
  0
LINE
  5
104
330
914
100
AcDbEntity
  8
DATA
  6
Continuous
 62
     7
100
AcDbLine
 10
-66.86367779950661
 20
179.9999999999999
 30
0.0
 11
-61.0
 21
179.9999999999999
 31
0.0
  0
LINE
  5
105
330
914
100
AcDbEntity
  8
DATA
  6
Continuous
 62
     7
100
AcDbLine
 10
-100.0
 20
147.9999999999999
 30
0.0
 11
-85.0
 21
147.9999999999999
 31
0.0
  0
LINE
  5
106
330
914
100
AcDbEntity
  8
DATA
  6
Continuous
 62
     7
100
AcDbLine
 10
-68.30765420973739
 20
178.9061183653774
 30
0.0
 11
-74.73321756093081
 21
156.0596708944685
 31
0.0
  0
ARC
  5
107
330
914
100
AcDbEntity
  8
DATA
  6
Continuous
 62
     7
100
AcDbCircle
 10
-89.63281249999999
 20
164.5021972656249
 30
0.0
 40
17.14017112673493
100
AcDbArc
 50
285.6815091475615
 51
330.0514028094865
  0
ARC
  5
108
330
914
100
AcDbEntity
  8
DATA
  6
Continuous
 62
     7
100
AcDbCircle
 10
-75.21454303103246
 20
156.1950436829346
 30
0.0
 40
0.5000000000258432
100
AcDbArc
 50
330.0514028102155
 51
344.2913621709764
  0
LINE
  5
109
330
914
100
AcDbEntity
  8
DATA
  6
Continuous
 62
     7
100
AcDbLine
 10
-61.79999999999972
 20
220.9999999999999
 30
0.0
 11
-61.79999999999972
 21
179.9999999999999
 31
0.0
  0
LINE
  5
10A
330
914
100
AcDbEntity
  8
DATA
  6
Continuous
 62
     7
100
AcDbLine
 10
-61.79999999999972
 20
54.99999999999989
 30
0.0
 11
-61.79999999999972
 21
24.9999999999999
 31
0.0
  0
LINE
  5
10B
330
914
100
AcDbEntity
  8
DATA
  6
Continuous
 62
     7
100
AcDbLine
 10
-61.0
 20
220.9999999999999
 30
0.0
 11
-61.79999999999972
 21
220.9999999999999
 31
0.0
  0
ARC
  5
10C
330
914
100
AcDbEntity
  8
DATA
  6
Continuous
 62
     7
100
AcDbCircle
 10
-66.86367779950661
 20
178.4999999999999
 30
0.0
 40
1.5
100
AcDbArc
 50
90.0
 51
164.2913621709832
  0
LINE
  5
10D
330
914
100
AcDbEntity
  8
DATA
  6
Continuous
 62
     7
100
AcDbLine
 10
-100.0
 20
54.99999999999989
 30
0.0
 11
-94.0
 21
54.99999999999989
 31
0.0
  0
LINE
  5
10E
330
914
100
AcDbEntity
  8
DATA
  6
Continuous
 62
     7
100
AcDbLine
 10
-92.0
 20
54.99999999999989
 30
0.0
 11
-67.0
 21
54.99999999999989
 31
0.0
  0
LINE
  5
10F
330
914
100
AcDbEntity
  8
DATA
  6
Continuous
 62
     7
100
AcDbLine
 10
-65.0
 20
54.99999999999989
 30
0.0
 11
-61.0
 21
54.99999999999989
 31
0.0
  0
LINE
  5
110
330
914
100
AcDbEntity
  8
DATA
  6
Continuous
 62
     7
100
AcDbLine
 10
-65.0
 20
54.99999999999989
 30
0.0
 11
-65.0
 21
56.99999999999989
 31
0.0
  0
LINE
  5
111
330
914
100
AcDbEntity
  8
DATA
  6
Continuous
 62
     7
100
AcDbLine
 10
-67.0
 20
54.99999999999989
 30
0.0
 11
-67.0
 21
56.99999999999989
 31
0.0
  0
LINE
  5
112
330
914
100
AcDbEntity
  8
DATA
  6
Continuous
 62
     7
100
AcDbLine
 10
-92.0
 20
54.99999999999989
 30
0.0
 11
-92.0
 21
56.99999999999989
 31
0.0
  0
LINE
  5
113
330
914
100
AcDbEntity
  8
DATA
  6
Continuous
 62
     7
100
AcDbLine
 10
-94.0
 20
54.99999999999989
 30
0.0
 11
-94.0
 21
56.99999999999989
 31
0.0
  0
ARC
  5
114
330
914
100
AcDbEntity
  8
DATA
  6
Continuous
 62
     7
100
AcDbCircle
 10
-93.0
 20
56.99999999999989
 30
0.0
 40
1.0
100
AcDbArc
 50
0.0
 51
180.0
  0
ARC
  5
115
330
914
100
AcDbEntity
  8
DATA
  6
Continuous
 62
     7
100
AcDbCircle
 10
-66.0
 20
56.99999999999989
 30
0.0
 40
1.0
100
AcDbArc
 50
0.0
 51
180.0
  0
LINE
  5
116
330
914
100
AcDbEntity
  8
DATA
  6
Continuous
 62
     7
100
AcDbLine
 10
-120.0
 20
179.9999999999999
 30
0.0
 11
-126.7679729012741
 21
179.9999999999999
 31
0.0
  0
LINE
  5
117
330
914
100
AcDbEntity
  8
DATA
  6
Continuous
 62
     7
100
AcDbLine
 10
-173.2320270987259
 20
179.9999999999999
 30
0.0
 11
-180.0
 21
179.9999999999999
 31
0.0
  0
LINE
  5
118
330
914
100
AcDbEntity
  8
DATA
  6
Continuous
 62
     7
100
AcDbLine
 10
-165.9606123932728
 20
218.374326125054
 30
0.0
 11
-171.2525443325403
 21
181.7142588962471
 31
0.0
  0
LINE
  5
119
330
914
100
AcDbEntity
  8
DATA
  6
Continuous
 62
     7
100
AcDbLine
 10
-134.0393876067271
 20
218.374326125054
 30
0.0
 11
-128.7474556674597
 21
181.7142588962471
 31
0.0
  0
ARC
  5
11A
330
914
100
AcDbEntity
  8
DATA
  6
Continuous
 62
     7
100
AcDbCircle
 10
-162.2041209847916
 20
216.9999999999999
 30
0.0
 40
4.0
100
AcDbArc
 50
90.0
 51
159.9047688080945
  0
ARC
  5
11B
330
914
100
AcDbEntity
  8
DATA
  6
Continuous
 62
     7
100
AcDbCircle
 10
-137.7958790152083
 20
216.9999999999999
 30
0.0
 40
3.999999999999952
100
AcDbArc
 50
20.09523119190545
 51
90.0
  0
ARC
  5
11C
330
914
100
AcDbEntity
  8
DATA
  6
Continuous
 62
     7
100
AcDbCircle
 10
-173.2320270987259
 20
181.9999999999999
 30
0.0
 40
1.999999999999971
100
AcDbArc
 50
270.0
 51
351.7860130556292
  0
ARC
  5
11D
330
914
100
AcDbEntity
  8
DATA
  6
Continuous
 62
     7
100
AcDbCircle
 10
-126.7679729012741
 20
181.9999999999999
 30
0.0
 40
1.999999999999882
100
AcDbArc
 50
188.2139869443708
 51
270.0
  0
LINE
  5
11E
330
914
100
AcDbEntity
  8
DATA
  6
Continuous
 62
     7
100
AcDbLine
 10
-162.2041209847916
 20
24.9999999999999
 30
0.0
 11
-137.7958790152083
 21
24.9999999999999
 31
0.0
  0
LINE
  5
11F
330
914
100
AcDbEntity
  8
DATA
  6
Continuous
 62
     7
100
AcDbLine
 10
-165.9606123932728
 20
27.62567387494575
 30
0.0
 11
-171.6538177097004
 21
53.43088280957147
 31
0.0
  0
LINE
  5
120
330
914
100
AcDbEntity
  8
DATA
  6
Continuous
 62
     7
100
AcDbLine
 10
-134.0393876067271
 20
27.62567387494575
 30
0.0
 11
-128.3461822902995
 21
53.43088280957147
 31
0.0
  0
ARC
  5
121
330
914
100
AcDbEntity
  8
DATA
  6
Continuous
 62
     7
100
AcDbCircle
 10
-162.2041209847916
 20
28.9999999999999
 30
0.0
 40
3.999999999999952
100
AcDbArc
 50
200.0952311919055
 51
270.0
  0
ARC
  5
122
330
914
100
AcDbEntity
  8
DATA
  6
Continuous
 62
     7
100
AcDbCircle
 10
-137.7958790152083
 20
28.9999999999999
 30
0.0
 40
4.0
100
AcDbArc
 50
270.0
 51
339.9047688080945
  0
LINE
  5
123
330
914
100
AcDbEntity
  8
DATA
  6
Continuous
 62
     7
100
AcDbLine
 10
-120.0
 20
54.99999999999989
 30
0.0
 11
-134.0
 21
54.99999999999989
 31
0.0
  0
LINE
  5
124
330
914
100
AcDbEntity
  8
DATA
  6
Continuous
 62
     7
100
AcDbLine
 10
-166.0
 20
54.99999999999989
 30
0.0
 11
-180.0
 21
54.99999999999989
 31
0.0
  0
ARC
  5
125
330
914
100
AcDbEntity
  8
DATA
  6
Continuous
 62
     7
100
AcDbCircle
 10
-173.6068512486895
 20
52.9999999999999
 30
0.0
 40
2.00000000000012
100
AcDbArc
 50
12.44142483375422
 51
90.0
  0
ARC
  5
126
330
914
100
AcDbEntity
  8
DATA
  6
Continuous
 62
     7
100
AcDbCircle
 10
-126.3931487513104
 20
52.9999999999999
 30
0.0
 40
1.999999999999985
100
AcDbArc
 50
90.0
 51
167.5585751662458
  0
LINE
  5
127
330
914
100
AcDbEntity
  8
DATA
  6
Continuous
 62
     7
100
AcDbLine
 10
-120.0
 20
147.9999999999999
 30
0.0
 11
-128.5
 21
147.9999999999999
 31
0.0
  0
LINE
  5
128
330
914
100
AcDbEntity
  8
DATA
  6
Continuous
 62
     7
100
AcDbLine
 10
-171.5
 20
147.9999999999999
 30
0.0
 11
-180.0
 21
147.9999999999999
 31
0.0
  0
LINE
  5
129
330
914
100
AcDbEntity
  8
DATA
  6
Continuous
 62
     7
100
AcDbLine
 10
-120.7999999999999
 20
179.9999999999999
 30
0.0
 11
-120.7999999999999
 21
147.9999999999999
 31
0.0
  0
LINE
  5
12A
330
914
100
AcDbEntity
  8
DATA
  6
Continuous
 62
     7
100
AcDbLine
 10
-179.2
 20
147.9999999999999
 30
0.0
 11
-179.2
 21
179.9999999999999
 31
0.0
  0
LINE
  5
12B
330
914
100
AcDbEntity
  8
DATA
  6
Continuous
 62
     7
100
AcDbLine
 10
-130.0
 20
146.4999999999999
 30
0.0
 11
-130.0
 21
56.49999999999989
 31
0.0
  0
LINE
  5
12C
330
914
100
AcDbEntity
  8
DATA
  6
Continuous
 62
     7
100
AcDbLine
 10
-170.0
 20
146.4999999999999
 30
0.0
 11
-170.0
 21
56.49999999999989
 31
0.0
  0
LINE
  5
12D
330
914
100
AcDbEntity
  8
DATA
  6
Continuous
 62
     7
100
AcDbLine
 10
-166.0
 20
55.7999999999999
 30
0.0
 11
-170.1733500838577
 21
55.7999999999999
 31
0.0
  0
LINE
  5
12E
330
914
100
AcDbEntity
  8
DATA
  6
Continuous
 62
     7
100
AcDbLine
 10
-129.8266499161423
 20
55.7999999999999
 30
0.0
 11
-134.0
 21
55.7999999999999
 31
0.0
  0
LINE
  5
12F
330
914
100
AcDbEntity
  8
DATA
  6
Continuous
 62
     7
100
AcDbLine
 10
-166.0
 20
55.7999999999999
 30
0.0
 11
-166.0
 21
54.99999999999989
 31
0.0
  0
LINE
  5
130
330
914
100
AcDbEntity
  8
DATA
  6
Continuous
 62
     7
100
AcDbLine
 10
-134.0
 20
55.7999999999999
 30
0.0
 11
-134.0
 21
54.99999999999989
 31
0.0
  0
ARC
  5
131
330
914
100
AcDbEntity
  8
DATA
  6
Continuous
 62
     7
100
AcDbCircle
 10
-171.5
 20
56.49999999999989
 30
0.0
 40
1.5
100
AcDbArc
 50
270.0
 51
0.0
  0
ARC
  5
132
330
914
100
AcDbEntity
  8
DATA
  6
Continuous
 62
     7
100
AcDbCircle
 10
-128.5
 20
56.49999999999989
 30
0.0
 40
1.5
100
AcDbArc
 50
180.0
 51
270.0
  0
ARC
  5
133
330
914
100
AcDbEntity
  8
DATA
  6
Continuous
 62
     7
100
AcDbCircle
 10
-171.5
 20
146.4999999999999
 30
0.0
 40
1.5
100
AcDbArc
 50
0.0
 51
90.0
  0
ARC
  5
134
330
914
100
AcDbEntity
  8
DATA
  6
Continuous
 62
     7
100
AcDbCircle
 10
-128.5
 20
146.4999999999999
 30
0.0
 40
1.5
100
AcDbArc
 50
90.0
 51
180.0
  0
LINE
  5
135
330
914
100
AcDbEntity
  8
DATA
  6
Continuous
 62
     7
100
AcDbLine
 10
-160.5
 20
192.4999999999999
 30
0.0
 11
-139.5
 21
192.4999999999999
 31
0.0
  0
LINE
  5
136
330
914
100
AcDbEntity
  8
DATA
  6
Continuous
 62
     7
100
AcDbLine
 10
-159.5
 20
151.4999999999999
 30
0.0
 11
-158.5
 21
151.4999999999999
 31
0.0
  0
LINE
  5
137
330
914
100
AcDbEntity
  8
DATA
  6
Continuous
 62
     7
100
AcDbLine
 10
-141.5
 20
151.4999999999999
 30
0.0
 11
-140.5
 21
151.4999999999999
 31
0.0
  0
LINE
  5
138
330
914
100
AcDbEntity
  8
DATA
  6
Continuous
 62
     7
100
AcDbLine
 10
-160.5
 20
192.4999999999999
 30
0.0
 11
-160.5
 21
152.4999999999999
 31
0.0
  0
LINE
  5
139
330
914
100
AcDbEntity
  8
DATA
  6
Continuous
 62
     7
100
AcDbLine
 10
-139.5
 20
192.4999999999999
 30
0.0
 11
-139.5
 21
152.4999999999999
 31
0.0
  0
LINE
  5
13A
330
914
100
AcDbEntity
  8
DATA
  6
Continuous
 62
     7
100
AcDbLine
 10
-142.5
 20
186.9999999999999
 30
0.0
 11
-142.5
 21
152.4999999999999
 31
0.0
  0
LINE
  5
13B
330
914
100
AcDbEntity
  8
DATA
  6
Continuous
 62
     7
100
AcDbLine
 10
-157.5
 20
186.9999999999999
 30
0.0
 11
-157.5
 21
152.4999999999999
 31
0.0
  0
LINE
  5
13C
330
914
100
AcDbEntity
  8
DATA
  6
Continuous
 62
     7
100
AcDbLine
 10
-157.5
 20
186.9999999999999
 30
0.0
 11
-142.5
 21
186.9999999999999
 31
0.0
  0
ARC
  5
13D
330
914
100
AcDbEntity
  8
DATA
  6
Continuous
 62
     7
100
AcDbCircle
 10
-159.5
 20
152.4999999999999
 30
0.0
 40
1.0
100
AcDbArc
 50
180.0
 51
270.0
  0
ARC
  5
13E
330
914
100
AcDbEntity
  8
DATA
  6
Continuous
 62
     7
100
AcDbCircle
 10
-158.5
 20
152.4999999999999
 30
0.0
 40
1.0
100
AcDbArc
 50
270.0
 51
0.0
  0
ARC
  5
13F
330
914
100
AcDbEntity
  8
DATA
  6
Continuous
 62
     7
100
AcDbCircle
 10
-141.5
 20
152.4999999999999
 30
0.0
 40
1.0
100
AcDbArc
 50
180.0
 51
270.0
  0
ARC
  5
140
330
914
100
AcDbEntity
  8
DATA
  6
Continuous
 62
     7
100
AcDbCircle
 10
-140.5
 20
152.4999999999999
 30
0.0
 40
1.0
100
AcDbArc
 50
270.0
 51
0.0
  0
LINE
  5
141
330
914
100
AcDbEntity
  8
DATA
  6
Continuous
 62
     7
100
AcDbLine
 10
-157.5
 20
176.4999999999999
 30
0.0
 11
-142.5
 21
176.4999999999999
 31
0.0
  0
LINE
  5
142
330
914
100
AcDbEntity
  8
DATA
  6
Continuous
 62
     7
100
AcDbLine
 10
-157.5
 20
178.4999999999999
 30
0.0
 11
-142.5
 21
178.4999999999999
 31
0.0
  0
LINE
  5
143
330
914
100
AcDbEntity
  8
DATA
  6
Continuous
 62
     7
100
AcDbLine
 10
30.0
 20
54.99999999999989
 30
0.0
 11
30.0
 21
179.9999999999999
 31
0.0
  0
LINE
  5
144
330
914
100
AcDbEntity
  8
DATA
  6
Continuous
 62
     7
100
AcDbLine
 10
-30.0
 20
179.9999999999999
 30
0.0
 11
-30.0
 21
54.99999999999989
 31
0.0
  0
LINE
  5
145
330
914
100
AcDbEntity
  8
DATA
  6
Continuous
 62
     7
100
AcDbLine
 10
12.20412098479164
 20
220.9999999999999
 30
0.0
 11
-12.20412098479164
 21
220.9999999999999
 31
0.0
  0
LINE
  5
146
330
914
100
AcDbEntity
  8
DATA
  6
Continuous
 62
     7
100
AcDbLine
 10
-30.0
 20
179.9999999999999
 30
0.0
 11
-23.23202709872612
 21
179.9999999999999
 31
0.0
  0
LINE
  5
147
330
914
100
AcDbEntity
  8
DATA
  6
Continuous
 62
     7
100
AcDbLine
 10
23.23202709872612
 20
179.9999999999999
 30
0.0
 11
30.0
 21
179.9999999999999
 31
0.0
  0
LINE
  5
148
330
914
100
AcDbEntity
  8
DATA
  6
Continuous
 62
     7
100
AcDbLine
 10
15.96061239327309
 20
218.374326125054
 30
0.0
 11
21.25254433254031
 21
181.7142588962471
 31
0.0
  0
LINE
  5
149
330
914
100
AcDbEntity
  8
DATA
  6
Continuous
 62
     7
100
AcDbLine
 10
-15.96061239327309
 20
218.374326125054
 30
0.0
 11
-21.25254433254031
 21
181.7142588962471
 31
0.0
  0
ARC
  5
14A
330
914
100
AcDbEntity
  8
DATA
  6
Continuous
 62
     7
100
AcDbCircle
 10
12.20412098479164
 20
216.9999999999999
 30
0.0
 40
4.000000000000165
100
AcDbArc
 50
20.09523119190433
 51
90.0
  0
ARC
  5
14B
330
914
100
AcDbEntity
  8
DATA
  6
Continuous
 62
     7
100
AcDbCircle
 10
-12.20412098479164
 20
216.9999999999999
 30
0.0
 40
4.0
100
AcDbArc
 50
90.0
 51
159.9047688080957
  0
ARC
  5
14C
330
914
100
AcDbEntity
  8
DATA
  6
Continuous
 62
     7
100
AcDbCircle
 10
23.23202709872612
 20
181.9999999999999
 30
0.0
 40
2.000000000000107
100
AcDbArc
 50
188.2139869443698
 51
270.0
  0
ARC
  5
14D
330
914
100
AcDbEntity
  8
DATA
  6
Continuous
 62
     7
100
AcDbCircle
 10
-23.23202709872612
 20
181.9999999999999
 30
0.0
 40
1.999999999999971
100
AcDbArc
 50
270.0
 51
351.7860130556302
  0
LINE
  5
14E
330
914
100
AcDbEntity
  8
DATA
  6
Continuous
 62
     7
100
AcDbLine
 10
12.20412098479164
 20
24.9999999999999
 30
0.0
 11
-12.20412098479164
 21
24.9999999999999
 31
0.0
  0
LINE
  5
14F
330
914
100
AcDbEntity
  8
DATA
  6
Continuous
 62
     7
100
AcDbLine
 10
15.96061239327309
 20
27.62567387494575
 30
0.0
 11
21.65381770970043
 21
53.43088280957147
 31
0.0
  0
LINE
  5
150
330
914
100
AcDbEntity
  8
DATA
  6
Continuous
 62
     7
100
AcDbLine
 10
-15.96061239327309
 20
27.62567387494575
 30
0.0
 11
-21.65381770970043
 21
53.43088280957147
 31
0.0
  0
ARC
  5
151
330
914
100
AcDbEntity
  8
DATA
  6
Continuous
 62
     7
100
AcDbCircle
 10
12.20412098479164
 20
28.9999999999999
 30
0.0
 40
4.0
100
AcDbArc
 50
270.0
 51
339.9047688080957
  0
ARC
  5
152
330
914
100
AcDbEntity
  8
DATA
  6
Continuous
 62
     7
100
AcDbCircle
 10
-12.20412098479164
 20
28.9999999999999
 30
0.0
 40
4.000000000000165
100
AcDbArc
 50
200.0952311919044
 51
270.0
  0
LINE
  5
153
330
914
100
AcDbEntity
  8
DATA
  6
Continuous
 62
     7
100
AcDbLine
 10
-30.0
 20
54.99999999999989
 30
0.0
 11
-23.60685124868951
 21
54.99999999999989
 31
0.0
  0
LINE
  5
154
330
914
100
AcDbEntity
  8
DATA
  6
Continuous
 62
     7
100
AcDbLine
 10
23.60685124868951
 20
54.99999999999989
 30
0.0
 11
30.0
 21
54.99999999999989
 31
0.0
  0
ARC
  5
155
330
914
100
AcDbEntity
  8
DATA
  6
Continuous
 62
     7
100
AcDbCircle
 10
23.60685124868951
 20
52.9999999999999
 30
0.0
 40
1.999999999999985
100
AcDbArc
 50
90.0
 51
167.5585751662458
  0
ARC
  5
156
330
914
100
AcDbEntity
  8
DATA
  6
Continuous
 62
     7
100
AcDbCircle
 10
-23.60685124868951
 20
52.9999999999999
 30
0.0
 40
2.00000000000012
100
AcDbArc
 50
12.44142483375422
 51
90.0
  0
LINE
  5
157
330
914
100
AcDbEntity
  8
DATA
  6
Continuous
 62
     7
100
AcDbLine
 10
10.5
 20
192.4999999999999
 30
0.0
 11
-10.5
 21
192.4999999999999
 31
0.0
  0
LINE
  5
158
330
914
100
AcDbEntity
  8
DATA
  6
Continuous
 62
     7
100
AcDbLine
 10
9.5
 20
151.4999999999999
 30
0.0
 11
8.5
 21
151.4999999999999
 31
0.0
  0
LINE
  5
159
330
914
100
AcDbEntity
  8
DATA
  6
Continuous
 62
     7
100
AcDbLine
 10
-8.5
 20
151.4999999999999
 30
0.0
 11
-9.5
 21
151.4999999999999
 31
0.0
  0
LINE
  5
15A
330
914
100
AcDbEntity
  8
DATA
  6
Continuous
 62
     7
100
AcDbLine
 10
10.5
 20
192.4999999999999
 30
0.0
 11
10.5
 21
152.4999999999999
 31
0.0
  0
LINE
  5
15B
330
914
100
AcDbEntity
  8
DATA
  6
Continuous
 62
     7
100
AcDbLine
 10
-10.5
 20
192.4999999999999
 30
0.0
 11
-10.5
 21
152.4999999999999
 31
0.0
  0
LINE
  5
15C
330
914
100
AcDbEntity
  8
DATA
  6
Continuous
 62
     7
100
AcDbLine
 10
-7.5
 20
186.9999999999999
 30
0.0
 11
-7.5
 21
152.4999999999999
 31
0.0
  0
LINE
  5
15D
330
914
100
AcDbEntity
  8
DATA
  6
Continuous
 62
     7
100
AcDbLine
 10
7.5
 20
186.9999999999999
 30
0.0
 11
7.5
 21
152.4999999999999
 31
0.0
  0
LINE
  5
15E
330
914
100
AcDbEntity
  8
DATA
  6
Continuous
 62
     7
100
AcDbLine
 10
7.5
 20
186.9999999999999
 30
0.0
 11
-7.5
 21
186.9999999999999
 31
0.0
  0
ARC
  5
15F
330
914
100
AcDbEntity
  8
DATA
  6
Continuous
 62
     7
100
AcDbCircle
 10
9.5
 20
152.4999999999999
 30
0.0
 40
1.0
100
AcDbArc
 50
270.0
 51
0.0
  0
ARC
  5
160
330
914
100
AcDbEntity
  8
DATA
  6
Continuous
 62
     7
100
AcDbCircle
 10
8.5
 20
152.4999999999999
 30
0.0
 40
1.0
100
AcDbArc
 50
180.0
 51
270.0
  0
ARC
  5
161
330
914
100
AcDbEntity
  8
DATA
  6
Continuous
 62
     7
100
AcDbCircle
 10
-8.5
 20
152.4999999999999
 30
0.0
 40
1.0
100
AcDbArc
 50
270.0
 51
0.0
  0
ARC
  5
162
330
914
100
AcDbEntity
  8
DATA
  6
Continuous
 62
     7
100
AcDbCircle
 10
-9.5
 20
152.4999999999999
 30
0.0
 40
1.0
100
AcDbArc
 50
180.0
 51
270.0
  0
LINE
  5
163
330
914
100
AcDbEntity
  8
DATA
  6
Continuous
 62
     7
100
AcDbLine
 10
7.5
 20
176.4999999999999
 30
0.0
 11
-7.5
 21
176.4999999999999
 31
0.0
  0
LINE
  5
164
330
914
100
AcDbEntity
  8
DATA
  6
Continuous
 62
     7
100
AcDbLine
 10
7.5
 20
178.4999999999999
 30
0.0
 11
-7.5
 21
178.4999999999999
 31
0.0
  0
LINE
  5
165
330
914
100
AcDbEntity
  8
DATA
  6
Continuous
 62
     7
100
AcDbLine
 10
7.5
 20
186.1999999999999
 30
0.0
 11
-7.5
 21
186.1999999999999
 31
0.0
  0
LINE
  5
166
330
914
100
AcDbEntity
  8
DATA
  6
Continuous
 62
     7
100
AcDbLine
 10
-180.0
 20
254.9999999999999
 30
0.0
 11
-180.0
 21
283.2999999999998
 31
0.0
  0
LINE
  5
167
330
914
100
AcDbEntity
  8
DATA
  6
Continuous
 62
     7
100
AcDbLine
 10
-120.0
 20
254.9999999999999
 30
0.0
 11
-120.0
 21
283.2999999999998
 31
0.0
  0
LINE
  5
168
330
914
100
AcDbEntity
  8
DATA
  6
Continuous
 62
     7
100
AcDbLine
 10
-175.0
 20
288.2999999999998
 30
0.0
 11
-125.0
 21
288.2999999999998
 31
0.0
  0
LINE
  5
169
330
914
100
AcDbEntity
  8
DATA
  6
Continuous
 62
     7
100
AcDbLine
 10
-175.0
 20
249.9999999999999
 30
0.0
 11
-170.0
 21
249.9999999999999
 31
0.0
  0
LINE
  5
16A
330
914
100
AcDbEntity
  8
DATA
  6
Continuous
 62
     7
100
AcDbLine
 10
-130.0
 20
249.9999999999999
 30
0.0
 11
-125.0
 21
249.9999999999999
 31
0.0
  0
LINE
  5
16B
330
914
100
AcDbEntity
  8
DATA
  6
Continuous
 62
     7
100
AcDbLine
 10
-174.2
 20
287.4999999999999
 30
0.0
 11
-125.8
 21
287.4999999999999
 31
0.0
  0
LINE
  5
16C
330
914
100
AcDbEntity
  8
DATA
  6
Continuous
 62
     7
100
AcDbLine
 10
-157.5
 20
283.4999999999999
 30
0.0
 11
-157.5
 21
287.4999999999999
 31
0.0
  0
LINE
  5
16D
330
914
100
AcDbEntity
  8
DATA
  6
Continuous
 62
     7
100
AcDbLine
 10
-142.5
 20
283.4999999999999
 30
0.0
 11
-142.5
 21
287.4999999999999
 31
0.0
  0
LINE
  5
16E
330
914
100
AcDbEntity
  8
DATA
  6
Continuous
 62
     7
100
AcDbLine
 10
-63.40103575398416
 20
186.6950014360323
 30
0.0
 11
-61.79999999999972
 21
186.9999999999999
 31
0.0
  0
LINE
  5
16F
330
914
100
AcDbEntity
  8
DATA
  6
Continuous
 62
     7
100
AcDbLine
 10
-63.20962378187551
 20
185.5663167634352
 30
0.0
 11
-64.79999999999972
 21
179.9999999999999
 31
0.0
  0
LINE
  5
170
330
914
100
AcDbEntity
  8
DATA
  6
Continuous
 62
     7
100
AcDbLine
 10
-62.86019023459494
 20
185.9114008537036
 30
0.0
 11
-61.79999999999972
 21
186.1999999999999
 31
0.0
  0
LINE
  5
171
330
914
100
AcDbEntity
  8
DATA
  6
Continuous
 62
     7
100
AcDbLine
 10
-63.78823001797672
 20
186.3411949370811
 30
0.0
 11
-65.59999999999991
 21
179.9999999999999
 31
0.0
  0
ARC
  5
172
330
914
100
AcDbEntity
  8
DATA
  6
Continuous
 62
     7
100
AcDbCircle
 10
-63.3074680441564
 20
186.2038343731325
 30
0.0
 40
0.4999999999999926
100
AcDbArc
 50
100.7856575503064
 51
164.0546040990825
  0
ARC
  5
173
330
914
100
AcDbEntity
  8
DATA
  6
Continuous
 62
     7
100
AcDbCircle
 10
-62.72886180805517
 20
185.4289561994864
 30
0.0
 40
0.500000000000004
100
AcDbArc
 50
105.2277689936544
 51
164.05460409907
  0
LINE
  5
174
330
914
100
AcDbEntity
  8
DATA
  6
Continuous
 62
     7
100
AcDbLine
 10
-157.5
 20
283.4999999999999
 30
0.0
 11
-142.5
 21
283.4999999999999
 31
0.0
  0
LINE
  5
175
330
914
100
AcDbEntity
  8
DATA
  6
Continuous
 62
     7
100
AcDbLine
 10
-179.2
 20
281.4999999999999
 30
0.0
 11
-167.7999999999999
 21
281.4999999999999
 31
0.0
  0
LINE
  5
176
330
914
100
AcDbEntity
  8
DATA
  6
Continuous
 62
     7
100
AcDbLine
 10
-132.2
 20
281.4999999999999
 30
0.0
 11
-120.7999999999999
 21
281.4999999999999
 31
0.0
  0
LINE
  5
177
330
914
100
AcDbEntity
  8
DATA
  6
Continuous
 62
     7
100
AcDbLine
 10
-179.2
 20
255.9999999999999
 30
0.0
 11
-167.7999999999999
 21
255.9999999999999
 31
0.0
  0
LINE
  5
178
330
914
100
AcDbEntity
  8
DATA
  6
Continuous
 62
     7
100
AcDbLine
 10
-132.2
 20
255.9999999999999
 30
0.0
 11
-120.7999999999999
 21
255.9999999999999
 31
0.0
  0
LINE
  5
179
330
914
100
AcDbEntity
  8
DATA
  6
Continuous
 62
     7
100
AcDbLine
 10
-133.7
 20
279.9999999999999
 30
0.0
 11
-133.7
 21
257.4999999999999
 31
0.0
  0
LINE
  5
17A
330
914
100
AcDbEntity
  8
DATA
  6
Continuous
 62
     7
100
AcDbLine
 10
-166.2999999999999
 20
279.9999999999999
 30
0.0
 11
-166.2999999999999
 21
257.4999999999999
 31
0.0
  0
LINE
  5
17B
330
914
100
AcDbEntity
  8
DATA
  6
Continuous
 62
     7
100
AcDbLine
 10
-120.7999999999999
 20
255.7999999999998
 30
0.0
 11
-120.7999999999999
 21
282.4999999999999
 31
0.0
  0
LINE
  5
17C
330
914
100
AcDbEntity
  8
DATA
  6
Continuous
 62
     7
100
AcDbLine
 10
-179.2
 20
255.7999999999998
 30
0.0
 11
-179.2
 21
282.4999999999999
 31
0.0
  0
LINE
  5
17D
330
914
100
AcDbEntity
  8
DATA
  6
Continuous
 62
     7
100
AcDbLine
 10
-174.2
 20
250.7999999999999
 30
0.0
 11
-170.0
 21
250.7999999999999
 31
0.0
  0
LINE
  5
17E
330
914
100
AcDbEntity
  8
DATA
  6
Continuous
 62
     7
100
AcDbLine
 10
-130.0
 20
250.7999999999999
 30
0.0
 11
-125.8
 21
250.7999999999999
 31
0.0
  0
LINE
  5
17F
330
914
100
AcDbEntity
  8
DATA
  6
Continuous
 62
     7
100
AcDbLine
 10
-170.0
 20
249.9999999999999
 30
0.0
 11
-170.0
 21
250.7999999999999
 31
0.0
  0
LINE
  5
180
330
914
100
AcDbEntity
  8
DATA
  6
Continuous
 62
     7
100
AcDbLine
 10
-130.0
 20
249.9999999999999
 30
0.0
 11
-130.0
 21
250.7999999999999
 31
0.0
  0
ARC
  5
181
330
914
100
AcDbEntity
  8
DATA
  6
Continuous
 62
     7
100
AcDbCircle
 10
-125.8
 20
282.4999999999999
 30
0.0
 40
5.0
100
AcDbArc
 50
0.0
 51
90.0
  0
ARC
  5
182
330
914
100
AcDbEntity
  8
DATA
  6
Continuous
 62
     7
100
AcDbCircle
 10
-125.0
 20
283.2999999999998
 30
0.0
 40
5.0
100
AcDbArc
 50
0.0
 51
90.0
  0
ARC
  5
183
330
914
100
AcDbEntity
  8
DATA
  6
Continuous
 62
     7
100
AcDbCircle
 10
-125.8
 20
255.7999999999998
 30
0.0
 40
5.0
100
AcDbArc
 50
270.0
 51
0.0
  0
ARC
  5
184
330
914
100
AcDbEntity
  8
DATA
  6
Continuous
 62
     7
100
AcDbCircle
 10
-125.0
 20
254.9999999999999
 30
0.0
 40
5.0
100
AcDbArc
 50
270.0
 51
0.0
  0
ARC
  5
185
330
914
100
AcDbEntity
  8
DATA
  6
Continuous
 62
     7
100
AcDbCircle
 10
-174.2
 20
255.7999999999998
 30
0.0
 40
5.0
100
AcDbArc
 50
180.0
 51
270.0
  0
ARC
  5
186
330
914
100
AcDbEntity
  8
DATA
  6
Continuous
 62
     7
100
AcDbCircle
 10
-175.0
 20
254.9999999999999
 30
0.0
 40
5.0
100
AcDbArc
 50
180.0
 51
270.0
  0
ARC
  5
187
330
914
100
AcDbEntity
  8
DATA
  6
Continuous
 62
     7
100
AcDbCircle
 10
-174.2
 20
282.4999999999999
 30
0.0
 40
5.0
100
AcDbArc
 50
90.0
 51
180.0
  0
ARC
  5
188
330
914
100
AcDbEntity
  8
DATA
  6
Continuous
 62
     7
100
AcDbCircle
 10
-175.0
 20
283.2999999999998
 30
0.0
 40
5.0
100
AcDbArc
 50
90.0
 51
180.0
  0
ARC
  5
189
330
914
100
AcDbEntity
  8
DATA
  6
Continuous
 62
     7
100
AcDbCircle
 10
-132.2
 20
257.4999999999999
 30
0.0
 40
1.5
100
AcDbArc
 50
180.0
 51
270.0
  0
ARC
  5
18A
330
914
100
AcDbEntity
  8
DATA
  6
Continuous
 62
     7
100
AcDbCircle
 10
-132.2
 20
279.9999999999999
 30
0.0
 40
1.5
100
AcDbArc
 50
90.0
 51
180.0
  0
ARC
  5
18B
330
914
100
AcDbEntity
  8
DATA
  6
Continuous
 62
     7
100
AcDbCircle
 10
-167.7999999999999
 20
279.9999999999999
 30
0.0
 40
1.5
100
AcDbArc
 50
0.0
 51
90.0
  0
ARC
  5
18C
330
914
100
AcDbEntity
  8
DATA
  6
Continuous
 62
     7
100
AcDbCircle
 10
-167.7999999999999
 20
257.4999999999999
 30
0.0
 40
1.5
100
AcDbArc
 50
270.0
 51
0.0
  0
LWPOLYLINE
  5
18D
330
914
100
AcDbEntity
  8
DATA
  6
Continuous
 62
     7
100
AcDbPolyline
 90
        4
 70
     1
 43
0.0
 10
-176.75
 20
-216.5
 10
-124.25
 20
-216.5
 10
-124.25
 20
-288.5000000000001
 10
-176.75
 20
-288.5000000000001
  0
CIRCLE
  5
194
330
914
100
AcDbEntity
  8
DATA
  6
Continuous
 62
     7
100
AcDbCircle
 10
-166.0
 20
-221.5
 30
0.0
 40
2.5
  0
CIRCLE
  5
195
330
914
100
AcDbEntity
  8
DATA
  6
Continuous
 62
     7
100
AcDbCircle
 10
-134.0
 20
-221.5
 30
0.0
 40
2.5
  0
CIRCLE
  5
196
330
914
100
AcDbEntity
  8
DATA
  6
Continuous
 62
     7
100
AcDbCircle
 10
-166.0
 20
-278.4494897427832
 30
0.0
 40
2.5
  0
CIRCLE
  5
197
330
914
100
AcDbEntity
  8
DATA
  6
Continuous
 62
     7
100
AcDbCircle
 10
-134.0
 20
-278.5
 30
0.0
 40
2.5
  0
LINE
  5
198
330
914
100
AcDbEntity
  8
DATA
  6
Continuous
 62
     7
100
AcDbLine
 10
0.25
 20
-214.0000000000001
 30
0.0
 11
5.25
 21
-214.0000000000001
 31
0.0
  0
LINE
  5
199
330
914
100
AcDbEntity
  8
DATA
  6
Continuous
 62
     7
100
AcDbLine
 10
0.25
 20
-286.0000000000001
 30
0.0
 11
5.25
 21
-286.0000000000001
 31
0.0
  0
LINE
  5
19A
330
914
100
AcDbEntity
  8
DATA
  6
Continuous
 62
     7
100
AcDbLine
 10
5.25
 20
-214.0000000000001
 30
0.0
 11
5.25
 21
-286.0000000000001
 31
0.0
  0
LINE
  5
19B
330
914
100
AcDbEntity
  8
DATA
  6
Continuous
 62
     7
100
AcDbLine
 10
0.25
 20
-214.0000000000001
 30
0.0
 11
0.25
 21
-286.0000000000001
 31
0.0
  0
LINE
  5
19C
330
914
100
AcDbEntity
  8
DATA
  6
Continuous
 62
     7
100
AcDbLine
 10
-8.75
 20
-234.5000000000001
 30
0.0
 11
0.25
 21
-230.5000000000001
 31
0.0
  0
LINE
  5
19D
330
914
100
AcDbEntity
  8
DATA
  6
Continuous
 62
     7
100
AcDbLine
 10
-8.75
 20
-265.5000000000001
 30
0.0
 11
0.25
 21
-269.5000000000001
 31
0.0
  0
LINE
  5
19E
330
914
100
AcDbEntity
  8
DATA
  6
Continuous
 62
     7
100
AcDbLine
 10
-13.75
 20
-234.5000000000001
 30
0.0
 11
-13.75
 21
-265.5000000000001
 31
0.0
  0
LINE
  5
19F
330
914
100
AcDbEntity
  8
DATA
  6
Continuous
 62
     7
100
AcDbLine
 10
0.25
 20
-230.5000000000001
 30
0.0
 11
0.25
 21
-269.5000000000001
 31
0.0
  0
LINE
  5
1A0
330
914
100
AcDbEntity
  8
DATA
  6
Continuous
 62
     7
100
AcDbLine
 10
-8.75
 20
-234.5000000000001
 30
0.0
 11
-8.75
 21
-265.5000000000001
 31
0.0
  0
LINE
  5
1A1
330
914
100
AcDbEntity
  8
DATA
  6
Continuous
 62
     7
100
AcDbLine
 10
-8.75
 20
-234.5000000000001
 30
0.0
 11
-13.75
 21
-234.5000000000001
 31
0.0
  0
LINE
  5
1A2
330
914
100
AcDbEntity
  8
DATA
  6
Continuous
 62
     7
100
AcDbLine
 10
-8.75
 20
-265.5000000000001
 30
0.0
 11
-13.75
 21
-265.5000000000001
 31
0.0
  0
LINE
  5
1A3
330
914
100
AcDbEntity
  8
DATA
  6
Continuous
 62
     7
100
AcDbLine
 10
-26.25
 20
-226.2083333333334
 30
0.0
 11
-13.75
 21
-226.0000000000001
 31
0.0
  0
LINE
  5
1A4
330
914
100
AcDbEntity
  8
DATA
  6
Continuous
 62
     7
100
AcDbLine
 10
-26.25
 20
-273.7916666666668
 30
0.0
 11
-13.75
 21
-274.0000000000001
 31
0.0
  0
LINE
  5
1A5
330
914
100
AcDbEntity
  8
DATA
  6
Continuous
 62
     7
100
AcDbLine
 10
-13.75
 20
-226.0000000000001
 30
0.0
 11
-13.75
 21
-274.0000000000001
 31
0.0
  0
LINE
  5
1A6
330
914
100
AcDbEntity
  8
DATA
  6
Continuous
 62
     7
100
AcDbLine
 10
-28.75
 20
-228.5000000000001
 30
0.0
 11
-28.75
 21
-271.5000000000001
 31
0.0
  0
LINE
  5
1A7
330
914
100
AcDbEntity
  8
DATA
  6
Continuous
 62
     7
100
AcDbLine
 10
-26.25
 20
-235.2322786993284
 30
0.0
 11
-26.25
 21
-240.9998499786693
 31
0.0
  0
LINE
  5
1A8
330
914
100
AcDbEntity
  8
DATA
  6
Continuous
 62
     7
100
AcDbLine
 10
-26.25
 20
-250.8479275087921
 30
0.0
 11
-26.25
 21
-257.4065675753831
 31
0.0
  0
LINE
  5
1A9
330
914
100
AcDbEntity
  8
DATA
  6
Continuous
 62
     7
100
AcDbLine
 10
-26.25
 20
-266.0668216132286
 30
0.0
 11
-26.25
 21
-270.3476698887453
 31
0.0
  0
LINE
  5
1AA
330
914
100
AcDbEntity
  8
DATA
  6
Continuous
 62
     7
100
AcDbLine
 10
-26.25
 20
-273.7678713220027
 30
0.0
 11
-26.25
 21
-273.7916666666668
 31
0.0
  0
LINE
  5
1AB
330
914
100
AcDbEntity
  8
DATA
  6
Continuous
 62
     7
100
AcDbLine
 10
-26.25
 20
-226.2083333333334
 30
0.0
 11
-28.75
 21
-228.5000000000001
 31
0.0
  0
LINE
  5
1AC
330
914
100
AcDbEntity
  8
DATA
  6
Continuous
 62
     7
100
AcDbLine
 10
-26.25
 20
-273.7916666666668
 30
0.0
 11
-28.75
 21
-271.5000000000001
 31
0.0
  0
LINE
  5
1AD
330
914
100
AcDbEntity
  8
DATA
  6
Continuous
 62
     7
100
AcDbLine
 10
-26.25
 20
-228.8044026024627
 30
0.0
 11
-13.75
 21
-228.8044026024627
 31
0.0
  0
LINE
  5
1AE
330
914
100
AcDbEntity
  8
DATA
  6
Continuous
 62
     7
100
AcDbLine
 10
-26.25
 20
-235.2322786993284
 30
0.0
 11
-13.75
 21
-235.2322786993284
 31
0.0
  0
LINE
  5
1AF
330
914
100
AcDbEntity
  8
DATA
  6
Continuous
 62
     7
100
AcDbLine
 10
-26.25
 20
-240.9998499786693
 30
0.0
 11
-13.75
 21
-240.9998499786693
 31
0.0
  0
LINE
  5
1B0
330
914
100
AcDbEntity
  8
DATA
  6
Continuous
 62
     7
100
AcDbLine
 10
-26.25
 20
-250.8479275087921
 30
0.0
 11
-13.75
 21
-250.8479275087921
 31
0.0
  0
LINE
  5
1B1
330
914
100
AcDbEntity
  8
DATA
  6
Continuous
 62
     7
100
AcDbLine
 10
-26.25
 20
-257.4065675753831
 30
0.0
 11
-13.75
 21
-257.4065675753831
 31
0.0
  0
LINE
  5
1B2
330
914
100
AcDbEntity
  8
DATA
  6
Continuous
 62
     7
100
AcDbLine
 10
-26.25
 20
-266.0668216132286
 30
0.0
 11
-13.75
 21
-266.0668216132286
 31
0.0
  0
LINE
  5
1B3
330
914
100
AcDbEntity
  8
DATA
  6
Continuous
 62
     7
100
AcDbLine
 10
-26.25
 20
-270.3476698887453
 30
0.0
 11
-13.75
 21
-270.3476698887453
 31
0.0
  0
LINE
  5
1B4
330
914
100
AcDbEntity
  8
DATA
  6
Continuous
 62
     7
100
AcDbLine
 10
-26.27595855781533
 20
-273.7678713220027
 30
0.0
 11
-26.25
 21
-273.7678713220027
 31
0.0
  0
ARC
  5
1B5
330
914
100
AcDbEntity
  8
DATA
  6
Continuous
 62
     7
100
AcDbCircle
 10
-23.55686740694546
 20
-232.0183406508956
 30
0.0
 40
4.193132593054631
100
AcDbArc
 50
129.9614628918858
 51
230.0385371081136
  0
ARC
  5
1B6
330
914
100
AcDbEntity
  8
DATA
  6
Continuous
 62
     7
100
AcDbCircle
 10
-18.91794741339095
 20
-245.9238887437308
 30
0.0
 40
8.832052586609078
100
AcDbArc
 50
146.1155940752376
 51
213.884405924762
  0
ARC
  5
1B7
330
914
100
AcDbEntity
  8
DATA
  6
Continuous
 62
     7
100
AcDbCircle
 10
-20.74999999999841
 20
-261.7366945943059
 30
0.0
 40
7.000000000001613
100
AcDbArc
 50
141.7867892982661
 51
218.2132107017332
  0
ARC
  5
1B8
330
914
100
AcDbEntity
  8
DATA
  6
Continuous
 62
     7
100
AcDbCircle
 10
-26.17733134804553
 20
-272.0577706053739
 30
0.0
 40
1.711644003287668
100
AcDbArc
 50
92.43325064182249
 51
188.3331920404984
  0
ARC
  5
1B9
330
914
100
AcDbEntity
  8
DATA
  6
Continuous
 62
     7
100
AcDbCircle
 10
-26.17733134804553
 20
-272.0577706053739
 30
0.0
 40
1.711644003287772
100
AcDbArc
 50
266.6459138035029
 51
267.5667493581777
  0
LINE
  5
1BA
330
914
100
AcDbEntity
  8
DATA
  6
Continuous
 62
     7
100
AcDbLine
 10
-26.25
 20
-228.8044026024627
 30
0.0
 11
-26.25
 21
-226.2083333333334
 31
0.0
  0
LWPOLYLINE
  5
1BB
330
914
100
AcDbEntity
  8
DATA
  6
Continuous
 62
     7
100
AcDbPolyline
 90
      770
 70
   129
 43
0.0
 10
-22.3749999999996
 20
-260.2596492415548
 10
-22.35866420802066
 20
-260.251554940009
 10
-22.34228897689819
 20
-260.2435881077789
 10
-22.32587430663219
 20
-260.2357487448646
 10
-22.30942019722267
 20
-260.2280368512658
 10
-22.29292664866963
 20
-260.2204524269828
 10
-22.27639366097305
 20
-260.2129954720154
 10
-22.25982123413295
 20
-260.2056659863637
 10
-22.24320936814933
 20
-260.1984639700278
 10
-22.22655806302219
 20
-260.1913894230075
 10
-22.2098673187515
 20
-260.1844423453029
 10
-22.19313713533731
 20
-260.177622736914
 10
-22.17636751277959
 20
-260.1709305978407
 10
-22.15955845107833
 20
-260.1643659280832
 10
-22.14270995023356
 20
-260.1579287276413
 10
-22.12582201024525
 20
-260.151618996515
 10
-22.10889463111342
 20
-260.1454367347045
 10
-22.09192781283808
 20
-260.1393819422096
 10
-22.0749215554192
 20
-260.1334546190305
 10
-22.0578758588568
 20
-260.127654765167
 10
-22.04079072315087
 20
-260.1219823806192
 10
-22.02366614830141
 20
-260.116437465387
 10
-22.00650213430844
 20
-260.1110200194706
 10
-21.98929868117193
 20
-260.1057300428698
 10
-21.9720557888919
 20
-260.1005675355847
 10
-21.95477345746834
 20
-260.0955324976153
 10
-21.93745168690127
 20
-260.0906249289616
 10
-21.92009047719067
 20
-260.0858448296236
 10
-21.90268982833652
 20
-260.0811921996012
 10
-21.88524974033887
 20
-260.0766670388945
 10
-21.86777021319769
 20
-260.0722693475035
 10
-21.85025124691299
 20
-260.0679991254282
 10
-21.83269284148475
 20
-260.0638563726684
 10
-21.81509499691299
 20
-260.0598410892246
 10
-21.79745771319771
 20
-260.0559532750963
 10
-21.77978099033889
 20
-260.0521929302837
 10
-21.76206482833657
 20
-260.0485600547868
 10
-21.74430922719071
 20
-260.0450546486055
 10
-21.72651418690132
 20
-260.04167671174
 10
-21.70867970746841
 20
-260.0384262441902
 10
-21.69080578889197
 20
-260.035303245956
 10
-21.67289243117201
 20
-260.0323077170374
 10
-21.65493963430853
 20
-260.0294396574347
 10
-21.63694739830152
 20
-260.0266990671475
 10
-21.61891572315098
 20
-260.024085946176
 10
-21.60084460885692
 20
-260.0216002945203
 10
-21.58273405541933
 20
-260.0192421121801
 10
-21.56458406283821
 20
-260.0170113991557
 10
-21.54639463111357
 20
-260.0149081554469
 10
-21.52816576024541
 20
-260.012932381054
 10
-21.50989745023371
 20
-260.0110840759766
 10
-21.49158970107851
 20
-260.0093632402149
 10
-21.47324251277977
 20
-260.0077698737688
 10
-21.4548558853375
 20
-260.0063039766384
 10
-21.4364298187517
 20
-260.0049655488239
 10
-21.41796431302239
 20
-260.0037545903248
 10
-21.39945936814955
 20
-260.0026711011416
 10
-21.38091498413318
 20
-260.001715081274
 10
-21.36233116097328
 20
-260.000886530722
 10
-21.34370789866986
 20
-260.0001854494858
 10
-21.32504519722292
 20
-259.9996118375652
 10
-21.30634305663245
 20
-259.9991656949603
 10
-21.28760147689845
 20
-259.9988470216711
 10
-21.26882045802093
 20
-259.9986558176977
 10
-21.24999999999989
 20
-259.9985920830398
 10
-21.23117954197884
 20
-259.9986558176977
 10
-21.21239852310132
 20
-259.9988470216711
 10
-21.19365694336732
 20
-259.9991656949603
 10
-21.17495480277685
 20
-259.9996118375652
 10
-21.15629210132991
 20
-260.0001854494858
 10
-21.13766883902649
 20
-260.000886530722
 10
-21.11908501586659
 20
-260.001715081274
 10
-21.10054063185023
 20
-260.0026711011416
 10
-21.08203568697739
 20
-260.0037545903248
 10
-21.06357018124807
 20
-260.0049655488239
 10
-21.04514411466227
 20
-260.0063039766384
 10
-21.02675748722001
 20
-260.0077698737688
 10
-21.00841029892127
 20
-260.0093632402149
 10
-20.99010254976605
 20
-260.0110840759766
 10
-20.97183423975436
 20
-260.012932381054
 10
-20.9536053688862
 20
-260.0149081554469
 10
-20.93541593716156
 20
-260.0170113991557
 10
-20.91726594458045
 20
-260.0192421121801
 10
-20.89915539114285
 20
-260.0216002945203
 10
-20.8810842768488
 20
-260.024085946176
 10
-20.86305260169825
 20
-260.0266990671475
 10
-20.84506036569125
 20
-260.0294396574347
 10
-20.82710756882776
 20
-260.0323077170374
 10
-20.8091942111078
 20
-260.035303245956
 10
-20.79132029253137
 20
-260.0384262441902
 10
-20.77348581309845
 20
-260.04167671174
 10
-20.75569077280907
 20
-260.0450546486055
 10
-20.73793517166321
 20
-260.0485600547868
 10
-20.72021900966088
 20
-260.0521929302837
 10
-20.70254228680207
 20
-260.0559532750963
 10
-20.68490500308679
 20
-260.0598410892246
 10
-20.66730715851502
 20
-260.0638563726684
 10
-20.64974875308679
 20
-260.0679991254282
 10
-20.63222978680208
 20
-260.0722693475035
 10
-20.61475025966089
 20
-260.0766670388945
 10
-20.59731017166324
 20
-260.0811921996012
 10
-20.57990952280911
 20
-260.0858448296236
 10
-20.56254831309851
 20
-260.0906249289616
 10
-20.54522654253143
 20
-260.0955324976153
 10
-20.52794421110787
 20
-260.1005675355847
 10
-20.51070131882784
 20
-260.1057300428698
 10
-20.49349786569134
 20
-260.1110200194706
 10
-20.47633385169836
 20
-260.116437465387
 10
-20.45920927684891
 20
-260.1219823806192
 10
-20.44212414114297
 20
-260.127654765167
 10
-20.42507844458057
 20
-260.1334546190305
 10
-20.40807218716169
 20
-260.1393819422096
 10
-20.39110536888634
 20
-260.1454367347045
 10
-20.37417798975452
 20
-260.151618996515
 10
-20.35729004976621
 20
-260.1579287276413
 10
-20.34044154892145
 20
-260.1643659280832
 10
-20.32363248722019
 20
-260.1709305978407
 10
-20.30686286466246
 20
-260.177622736914
 10
-20.29013268124827
 20
-260.1844423453029
 10
-20.27344193697759
 20
-260.1913894230075
 10
-20.25679063185044
 20
-260.1984639700278
 10
-20.24017876586682
 20
-260.2056659863637
 10
-20.22360633902672
 20
-260.2129954720154
 10
-20.20707335133014
 20
-260.2204524269828
 10
-20.1905798027771
 20
-260.2280368512658
 10
-20.17412569336757
 20
-260.2357487448646
 10
-20.15771102310158
 20
-260.2435881077789
 10
-20.14133579197912
 20
-260.251554940009
 10
-20.12500000000017
 20
-260.2596492415548
 10
-20.10873780246495
 20
-260.2678539347661
 10
-20.09258335467364
 20
-260.2761519419928
 10
-20.07653665662625
 20
-260.2845432632352
 10
-20.06059770832279
 20
-260.293027898493
 10
-20.04476650976324
 20
-260.3016058477663
 10
-20.02904306094761
 20
-260.310277111055
 10
-20.01342736187589
 20
-260.3190416883593
 10
-19.9979194125481
 20
-260.327899579679
 10
-19.98251921296423
 20
-260.3368507850143
 10
-19.96722676312426
 20
-260.3458953043649
 10
-19.95204206302823
 20
-260.3550331377311
 10
-19.9369651126761
 20
-260.3642642851128
 10
-19.9219959120679
 20
-260.3735887465099
 10
-19.90713446120361
 20
-260.3830065219225
 10
-19.89238076008325
 20
-260.3925176113506
 10
-19.8777348087068
 20
-260.4021220147942
 10
-19.86319660707428
 20
-260.4118197322533
 10
-19.84876615518566
 20
-260.4216107637279
 10
-19.83444345304097
 20
-260.431495109218
 10
-19.82022850064019
 20
-260.4414727687236
 10
-19.80612129798334
 20
-260.4515437422445
 10
-19.79212184507041
 20
-260.4617080297811
 10
-19.77823014190138
 20
-260.4719656313331
 10
-19.76444618847629
 20
-260.4823165469006
 10
-19.7507699847951
 20
-260.4927607764835
 10
-19.73720153085784
 20
-260.503298320082
 10
-19.7237408266645
 20
-260.5139291776959
 10
-19.71038787221507
 20
-260.5246533493253
 10
-19.69714266750957
 20
-260.5354708349702
 10
-19.68400521254798
 20
-260.5463816346306
 10
-19.6709755073303
 20
-260.5573857483065
 10
-19.65805355185655
 20
-260.5684831759979
 10
-19.64523934612672
 20
-260.5796739177047
 10
-19.6325328901408
 20
-260.5909579734271
 10
-19.61993418389881
 20
-260.6023353431649
 10
-19.60744322740072
 20
-260.6138060269182
 10
-19.59506002064657
 20
-260.6253700246869
 10
-19.58278456363633
 20
-260.6370273364712
 10
-19.57061685637
 20
-260.648777962271
 10
-19.5585568988476
 20
-260.6606219020861
 10
-19.54660469106911
 20
-260.6725591559169
 10
-19.53476023303455
 20
-260.6845897237631
 10
-19.52302352474388
 20
-260.6967136056248
 10
-19.51139456619715
 20
-260.708930801502
 10
-19.49987335739435
 20
-260.7212413113946
 10
-19.48845989833545
 20
-260.7336451353028
 10
-19.47715418902047
 20
-260.7461422732264
 10
-19.46595622944941
 20
-260.7587327251656
 10
-19.45486601962228
 20
-260.7714164911201
 10
-19.44388355953906
 20
-260.7841935710902
 10
-19.43300884919975
 20
-260.7970639650757
 10
-19.42224188860437
 20
-260.8100276730768
 10
-19.41158267775291
 20
-260.8230846950934
 10
-19.40103121664535
 20
-260.8362350311254
 10
-19.39058750528172
 20
-260.8494786811728
 10
-19.38025154366201
 20
-260.8628156452359
 10
-19.37002333178622
 20
-260.8762459233144
 10
-19.35990286965435
 20
-260.8897695154084
 10
-19.34989015726639
 20
-260.9033864215178
 10
-19.33998519462235
 20
-260.9170966416428
 10
-19.33018798172223
 20
-260.9309001757831
 10
-19.32049851856604
 20
-260.944797023939
 10
-19.31091680515375
 20
-260.9587871861104
 10
-19.30144284148539
 20
-260.9728706622973
 10
-19.2920963471327
 20
-260.987017873142
 10
-19.28289704166747
 20
-261.0011992392869
 10
-19.27384492508968
 20
-261.015414760732
 10
-19.26493999739932
 20
-261.0296644374773
 10
-19.25618225859641
 20
-261.0439482695229
 10
-19.24757170868095
 20
-261.0582662568685
 10
-19.23910834765293
 20
-261.0726183995144
 10
-19.23079217551236
 20
-261.0870046974604
 10
-19.22262319225922
 20
-261.1014251507068
 10
-19.21460139789353
 20
-261.1158797592532
 10
-19.20672679241529
 20
-261.1303685230999
 10
-19.19899937582449
 20
-261.1448914422468
 10
-19.19141914812113
 20
-261.1594485166938
 10
-19.18398610930523
 20
-261.174039746441
 10
-19.17670025937675
 20
-261.1886651314884
 10
-19.16956159833572
 20
-261.2033246718362
 10
-19.16257012618215
 20
-261.2180183674841
 10
-19.155725842916
 20
-261.2327462184321
 10
-19.14902874853731
 20
-261.2475082246804
 10
-19.14247884304607
 20
-261.2623043862289
 10
-19.13607612644225
 20
-261.2771347030774
 10
-19.12982059872589
 20
-261.2919991752263
 10
-19.12371225989698
 20
-261.3068978026753
 10
-19.1177511099555
 20
-261.3218305854246
 10
-19.11193714890147
 20
-261.336797523474
 10
-19.10627037673489
 20
-261.3517986168236
 10
-19.10075079345574
 20
-261.3668338654735
 10
-19.09537839906404
 20
-261.3819032694234
 10
-19.09015319355979
 20
-261.3970068286736
 10
-19.08507517694297
 20
-261.412144543224
 10
-19.0801443492136
 20
-261.4273164130746
 10
-19.07536071037169
 20
-261.4425224382254
 10
-19.07072426041721
 20
-261.4577626186764
 10
-19.06623499935017
 20
-261.4730369544276
 10
-19.06189292717057
 20
-261.488345445479
 10
-19.05769804387843
 20
-261.5036880918306
 10
-19.05365034947372
 20
-261.5190648934824
 10
-19.04974984395646
 20
-261.5344758504345
 10
-19.04599652732664
 20
-261.5499209626865
 10
-19.04239039958427
 20
-261.5654002302389
 10
-19.03893146072935
 20
-261.5809136530915
 10
-19.03561971076186
 20
-261.5964612312442
 10
-19.03245514968181
 20
-261.6120429646973
 10
-19.02943777748921
 20
-261.6276588534504
 10
-19.02656759418406
 20
-261.6433088975037
 10
-19.02384459976635
 20
-261.6589930968573
 10
-19.02126879423608
 20
-261.674711451511
 10
-19.01884017759326
 20
-261.690463961465
 10
-19.01655874983789
 20
-261.7062506267191
 10
-19.01442451096994
 20
-261.7220714472734
 10
-19.01243746098945
 20
-261.737926423128
 10
-19.01059759989641
 20
-261.7538155542827
 10
-19.0089049276908
 20
-261.7697388407377
 10
-19.00735944437264
 20
-261.7856962824928
 10
-19.00596114994192
 20
-261.8016878795481
 10
-19.00471004439866
 20
-261.8177136319036
 10
-19.00360612774283
 20
-261.8337735395593
 10
-19.00264939997444
 20
-261.8498676025152
 10
-19.0018398610935
 20
-261.8659958207713
 10
-19.0011775111
 20
-261.8821581943276
 10
-19.00066234999395
 20
-261.8983547231841
 10
-19.00029437777534
 20
-261.9145854073408
 10
-19.00007359444417
 20
-261.9308502467977
 10
-19.00000000000045
 20
-261.9471492415548
 10
-19.00007359444417
 20
-261.9634482363119
 10
-19.00029437777534
 20
-261.9797130757688
 10
-19.00066234999395
 20
-261.9959437599255
 10
-19.0011775111
 20
-262.012140288782
 10
-19.0018398610935
 20
-262.0283026623382
 10
-19.00264939997444
 20
-262.0444308805943
 10
-19.00360612774283
 20
-262.0605249435503
 10
-19.00471004439866
 20
-262.076584851206
 10
-19.00596114994192
 20
-262.0926106035615
 10
-19.00735944437264
 20
-262.1086022006168
 10
-19.0089049276908
 20
-262.1245596423719
 10
-19.01059759989641
 20
-262.1404829288268
 10
-19.01243746098945
 20
-262.1563720599815
 10
-19.01442451096994
 20
-262.1722270358361
 10
-19.01655874983789
 20
-262.1880478563904
 10
-19.01884017759326
 20
-262.2038345216446
 10
-19.02126879423608
 20
-262.2195870315985
 10
-19.02384459976635
 20
-262.2353053862523
 10
-19.02656759418406
 20
-262.2509895856057
 10
-19.02943777748921
 20
-262.2666396296592
 10
-19.03245514968181
 20
-262.2822555184123
 10
-19.03561971076186
 20
-262.2978372518653
 10
-19.03893146072935
 20
-262.3133848300181
 10
-19.04239039958427
 20
-262.3288982528706
 10
-19.04599652732664
 20
-262.344377520423
 10
-19.04974984395646
 20
-262.3598226326752
 10
-19.05365034947372
 20
-262.3752335896271
 10
-19.05769804387843
 20
-262.3906103912789
 10
-19.06189292717057
 20
-262.4059530376305
 10
-19.06623499935017
 20
-262.421261528682
 10
-19.07072426041721
 20
-262.4365358644331
 10
-19.07536071037169
 20
-262.4517760448841
 10
-19.0801443492136
 20
-262.4669820700349
 10
-19.08507517694297
 20
-262.4821539398855
 10
-19.09015319355979
 20
-262.4972916544359
 10
-19.09537839906404
 20
-262.5123952136861
 10
-19.10075079345574
 20
-262.5274646176361
 10
-19.10627037673489
 20
-262.542499866286
 10
-19.11193714890147
 20
-262.5575009596356
 10
-19.1177511099555
 20
-262.572467897685
 10
-19.12371225989698
 20
-262.5874006804342
 10
-19.12982059872589
 20
-262.6022993078832
 10
-19.13607612644225
 20
-262.6171637800321
 10
-19.14247884304607
 20
-262.6319940968807
 10
-19.14902874853731
 20
-262.6467902584292
 10
-19.155725842916
 20
-262.6615522646774
 10
-19.16257012618215
 20
-262.6762801156254
 10
-19.16956159833572
 20
-262.6909738112733
 10
-19.17670025937675
 20
-262.705633351621
 10
-19.18398610930523
 20
-262.7202587366685
 10
-19.19141914812113
 20
-262.7348499664157
 10
-19.19899937582449
 20
-262.7494070408628
 10
-19.20672679241529
 20
-262.7639299600096
 10
-19.21460139789353
 20
-262.7784187238563
 10
-19.22262319225922
 20
-262.7928733324028
 10
-19.23079217551236
 20
-262.8072937856491
 10
-19.23910834765293
 20
-262.8216800835952
 10
-19.24757170868095
 20
-262.8360322262411
 10
-19.25618225859641
 20
-262.8503502135867
 10
-19.26493999739932
 20
-262.8646340456323
 10
-19.27384492508968
 20
-262.8788837223776
 10
-19.28289704166747
 20
-262.8930992438226
 10
-19.2920963471327
 20
-262.9072806099676
 10
-19.30144284148539
 20
-262.9214278208122
 10
-19.31091680515375
 20
-262.9355112969991
 10
-19.32049851856604
 20
-262.9495014591705
 10
-19.33018798172223
 20
-262.9633983073264
 10
-19.33998519462235
 20
-262.9772018414668
 10
-19.34989015726639
 20
-262.9909120615918
 10
-19.35990286965435
 20
-263.0045289677012
 10
-19.37002333178622
 20
-263.0180525597952
 10
-19.38025154366201
 20
-263.0314828378736
 10
-19.39058750528172
 20
-263.0448198019367
 10
-19.40103121664535
 20
-263.0580634519841
 10
-19.41158267775291
 20
-263.0712137880162
 10
-19.42224188860437
 20
-263.0842708100327
 10
-19.43300884919975
 20
-263.0972345180338
 10
-19.44388355953906
 20
-263.1101049120193
 10
-19.45486601962228
 20
-263.1228819919894
 10
-19.46595622944941
 20
-263.135565757944
 10
-19.47715418902047
 20
-263.1481562098831
 10
-19.48845989833545
 20
-263.1606533478067
 10
-19.49987335739435
 20
-263.1730571717149
 10
-19.51139456619715
 20
-263.1853676816076
 10
-19.52302352474388
 20
-263.1975848774847
 10
-19.53476023303455
 20
-263.2097087593464
 10
-19.54660469106911
 20
-263.2217393271927
 10
-19.5585568988476
 20
-263.2336765810233
 10
-19.57061685637
 20
-263.2455205208386
 10
-19.58278456363633
 20
-263.2572711466384
 10
-19.59506002064657
 20
-263.2689284584226
 10
-19.60744322740072
 20
-263.2804924561914
 10
-19.61993418389881
 20
-263.2919631399446
 10
-19.6325328901408
 20
-263.3033405096825
 10
-19.64523934612672
 20
-263.3146245654048
 10
-19.65805355185655
 20
-263.3258153071117
 10
-19.6709755073303
 20
-263.336912734803
 10
-19.68400521254798
 20
-263.3479168484789
 10
-19.69714266750957
 20
-263.3588276481392
 10
-19.71038787221507
 20
-263.3696451337843
 10
-19.7237408266645
 20
-263.3803693054137
 10
-19.73720153085784
 20
-263.3910001630276
 10
-19.7507699847951
 20
-263.401537706626
 10
-19.76444618847629
 20
-263.411981936209
 10
-19.77823014190138
 20
-263.4223328517764
 10
-19.79212184507041
 20
-263.4325904533284
 10
-19.80612129798334
 20
-263.442754740865
 10
-19.82022850064019
 20
-263.452825714386
 10
-19.83444345304097
 20
-263.4628033738916
 10
-19.84876615518566
 20
-263.4726877193816
 10
-19.86319660707428
 20
-263.4824787508563
 10
-19.8777348087068
 20
-263.4921764683153
 10
-19.89238076008325
 20
-263.5017808717588
 10
-19.90713446120361
 20
-263.511291961187
 10
-19.9219959120679
 20
-263.5207097365997
 10
-19.9369651126761
 20
-263.5300341979968
 10
-19.95204206302823
 20
-263.5392653453784
 10
-19.96722676312426
 20
-263.5484031787445
 10
-19.98251921296423
 20
-263.5574476980953
 10
-19.9979194125481
 20
-263.5663989034305
 10
-20.01342736187589
 20
-263.5752567947502
 10
-20.02904306094761
 20
-263.5840213720545
 10
-20.04476650976324
 20
-263.5926926353433
 10
-20.06059770832279
 20
-263.6012705846165
 10
-20.07653665662625
 20
-263.6097552198744
 10
-20.09258335467364
 20
-263.6181465411166
 10
-20.10873780246495
 20
-263.6264445483434
 10
-20.12500000000017
 20
-263.6346492415547
 10
-20.14133579197912
 20
-263.6427435431006
 10
-20.15771102310158
 20
-263.6507103753306
 10
-20.17412569336757
 20
-263.658549738245
 10
-20.1905798027771
 20
-263.6662616318437
 10
-20.20707335133014
 20
-263.6738460561267
 10
-20.22360633902672
 20
-263.6813030110941
 10
-20.24017876586682
 20
-263.6886324967457
 10
-20.25679063185044
 20
-263.6958345130817
 10
-20.27344193697759
 20
-263.702909060102
 10
-20.29013268124827
 20
-263.7098561378067
 10
-20.30686286466246
 20
-263.7166757461956
 10
-20.32363248722019
 20
-263.7233678852689
 10
-20.34044154892145
 20
-263.7299325550264
 10
-20.35729004976621
 20
-263.7363697554683
 10
-20.37417798975452
 20
-263.7426794865945
 10
-20.39110536888634
 20
-263.748861748405
 10
-20.40807218716169
 20
-263.7549165408999
 10
-20.42507844458057
 20
-263.760843864079
 10
-20.44212414114297
 20
-263.7666437179425
 10
-20.45920927684891
 20
-263.7723161024904
 10
-20.47633385169836
 20
-263.7778610177225
 10
-20.49349786569134
 20
-263.783278463639
 10
-20.51070131882784
 20
-263.7885684402397
 10
-20.52794421110787
 20
-263.7937309475248
 10
-20.54522654253143
 20
-263.7987659854942
 10
-20.56254831309851
 20
-263.803673554148
 10
-20.57990952280911
 20
-263.808453653486
 10
-20.59731017166324
 20
-263.8131062835083
 10
-20.61475025966089
 20
-263.8176314442151
 10
-20.63222978680208
 20
-263.8220291356061
 10
-20.64974875308679
 20
-263.8262993576814
 10
-20.66730715851502
 20
-263.830442110441
 10
-20.68490500308679
 20
-263.834457393885
 10
-20.70254228680207
 20
-263.8383452080133
 10
-20.72021900966088
 20
-263.8421055528259
 10
-20.73793517166321
 20
-263.8457384283228
 10
-20.75569077280907
 20
-263.849243834504
 10
-20.77348581309845
 20
-263.8526217713695
 10
-20.79132029253137
 20
-263.8558722389194
 10
-20.8091942111078
 20
-263.8589952371536
 10
-20.82710756882776
 20
-263.8619907660721
 10
-20.84506036569125
 20
-263.8648588256749
 10
-20.86305260169825
 20
-263.8675994159621
 10
-20.8810842768488
 20
-263.8702125369335
 10
-20.89915539114285
 20
-263.8726981885893
 10
-20.91726594458045
 20
-263.8750563709294
 10
-20.93541593716156
 20
-263.8772870839538
 10
-20.9536053688862
 20
-263.8793903276625
 10
-20.97183423975436
 20
-263.8813661020556
 10
-20.99010254976605
 20
-263.8832144071329
 10
-21.00841029892127
 20
-263.8849352428946
 10
-21.02675748722001
 20
-263.8865286093407
 10
-21.04514411466227
 20
-263.8879945064711
 10
-21.06357018124807
 20
-263.8893329342857
 10
-21.08203568697739
 20
-263.8905438927846
 10
-21.10054063185023
 20
-263.891627381968
 10
-21.11908501586659
 20
-263.8925834018356
 10
-21.13766883902649
 20
-263.8934119523876
 10
-21.15629210132991
 20
-263.8941130336237
 10
-21.17495480277685
 20
-263.8946866455443
 10
-21.19365694336732
 20
-263.8951327881493
 10
-21.21239852310132
 20
-263.8954514614384
 10
-21.23117954197884
 20
-263.8956426654119
 10
-21.24999999999989
 20
-263.8957064000698
 10
-21.26882045802093
 20
-263.8956426654119
 10
-21.28760147689845
 20
-263.8954514614384
 10
-21.30634305663245
 20
-263.8951327881493
 10
-21.32504519722292
 20
-263.8946866455443
 10
-21.34370789866986
 20
-263.8941130336237
 10
-21.36233116097328
 20
-263.8934119523876
 10
-21.38091498413318
 20
-263.8925834018356
 10
-21.39945936814955
 20
-263.891627381968
 10
-21.41796431302239
 20
-263.8905438927846
 10
-21.4364298187517
 20
-263.8893329342857
 10
-21.4548558853375
 20
-263.8879945064711
 10
-21.47324251277977
 20
-263.8865286093407
 10
-21.49158970107851
 20
-263.8849352428946
 10
-21.50989745023371
 20
-263.8832144071329
 10
-21.52816576024541
 20
-263.8813661020556
 10
-21.54639463111357
 20
-263.8793903276625
 10
-21.56458406283821
 20
-263.8772870839538
 10
-21.58273405541933
 20
-263.8750563709294
 10
-21.60084460885692
 20
-263.8726981885893
 10
-21.61891572315098
 20
-263.8702125369335
 10
-21.63694739830152
 20
-263.8675994159621
 10
-21.65493963430853
 20
-263.8648588256749
 10
-21.67289243117201
 20
-263.8619907660721
 10
-21.69080578889197
 20
-263.8589952371536
 10
-21.70867970746841
 20
-263.8558722389194
 10
-21.72651418690132
 20
-263.8526217713695
 10
-21.74430922719071
 20
-263.849243834504
 10
-21.76206482833657
 20
-263.8457384283228
 10
-21.77978099033889
 20
-263.8421055528259
 10
-21.79745771319771
 20
-263.8383452080133
 10
-21.81509499691299
 20
-263.834457393885
 10
-21.83269284148475
 20
-263.830442110441
 10
-21.85025124691299
 20
-263.8262993576814
 10
-21.86777021319769
 20
-263.8220291356061
 10
-21.88524974033887
 20
-263.8176314442151
 10
-21.90268982833652
 20
-263.8131062835083
 10
-21.92009047719067
 20
-263.808453653486
 10
-21.93745168690127
 20
-263.803673554148
 10
-21.95477345746834
 20
-263.7987659854942
 10
-21.9720557888919
 20
-263.7937309475248
 10
-21.98929868117193
 20
-263.7885684402397
 10
-22.00650213430844
 20
-263.783278463639
 10
-22.02366614830141
 20
-263.7778610177225
 10
-22.04079072315087
 20
-263.7723161024904
 10
-22.0578758588568
 20
-263.7666437179425
 10
-22.0749215554192
 20
-263.760843864079
 10
-22.09192781283808
 20
-263.7549165408999
 10
-22.10889463111342
 20
-263.748861748405
 10
-22.12582201024525
 20
-263.7426794865945
 10
-22.14270995023356
 20
-263.7363697554683
 10
-22.15955845107833
 20
-263.7299325550264
 10
-22.17636751277959
 20
-263.7233678852689
 10
-22.19313713533731
 20
-263.7166757461956
 10
-22.2098673187515
 20
-263.7098561378067
 10
-22.22655806302219
 20
-263.702909060102
 10
-22.24320936814933
 20
-263.6958345130817
 10
-22.25982123413295
 20
-263.6886324967457
 10
-22.27639366097305
 20
-263.6813030110941
 10
-22.29292664866963
 20
-263.6738460561267
 10
-22.30942019722267
 20
-263.6662616318437
 10
-22.32587430663219
 20
-263.658549738245
 10
-22.34228897689819
 20
-263.6507103753306
 10
-22.35866420802066
 20
-263.6427435431006
 10
-22.3749999999996
 20
-263.6346492415547
 10
-22.39126219753483
 20
-263.6264445483434
 10
-22.40741664532613
 20
-263.6181465411166
 10
-22.42346334337352
 20
-263.6097552198744
 10
-22.43940229167698
 20
-263.6012705846165
 10
-22.45523349023653
 20
-263.5926926353433
 10
-22.47095693905216
 20
-263.5840213720545
 10
-22.48657263812388
 20
-263.5752567947502
 10
-22.50208058745167
 20
-263.5663989034305
 10
-22.51748078703554
 20
-263.5574476980953
 10
-22.53277323687551
 20
-263.5484031787445
 10
-22.54795793697155
 20
-263.5392653453784
 10
-22.56303488732367
 20
-263.5300341979968
 10
-22.57800408793187
 20
-263.5207097365997
 10
-22.59286553879616
 20
-263.511291961187
 10
-22.60761923991652
 20
-263.5017808717588
 10
-22.62226519129297
 20
-263.4921764683153
 10
-22.6368033929255
 20
-263.4824787508563
 10
-22.65123384481411
 20
-263.4726877193816
 10
-22.6655565469588
 20
-263.4628033738916
 10
-22.67977149935957
 20
-263.452825714386
 10
-22.69387870201643
 20
-263.442754740865
 10
-22.70787815492937
 20
-263.4325904533284
 10
-22.72176985809839
 20
-263.4223328517764
 10
-22.73555381152348
 20
-263.411981936209
 10
-22.74923001520468
 20
-263.401537706626
 10
-22.76279846914193
 20
-263.3910001630276
 10
-22.77625917333528
 20
-263.3803693054137
 10
-22.7896121277847
 20
-263.3696451337843
 10
-22.80285733249021
 20
-263.3588276481392
 10
-22.8159947874518
 20
-263.3479168484789
 10
-22.82902449266947
 20
-263.336912734803
 10
-22.84194644814322
 20
-263.3258153071117
 10
-22.85476065387305
 20
-263.3146245654048
 10
-22.86746710985897
 20
-263.3033405096825
 10
-22.88006581610097
 20
-263.2919631399446
 10
-22.89255677259905
 20
-263.2804924561914
 10
-22.9049399793532
 20
-263.2689284584226
 10
-22.91721543636345
 20
-263.2572711466384
 10
-22.92938314362977
 20
-263.2455205208386
 10
-22.94144310115217
 20
-263.2336765810233
 10
-22.95339530893066
 20
-263.2217393271927
 10
-22.96523976696523
 20
-263.2097087593464
 10
-22.97697647525588
 20
-263.1975848774847
 10
-22.98860543380261
 20
-263.1853676816076
 10
-23.00012664260542
 20
-263.1730571717149
 10
-23.01154010166432
 20
-263.1606533478067
 10
-23.02284581097929
 20
-263.1481562098831
 10
-23.03404377055036
 20
-263.135565757944
 10
-23.04513398037749
 20
-263.1228819919894
 10
-23.05611644046072
 20
-263.1101049120193
 10
-23.06699115080002
 20
-263.0972345180338
 10
-23.07775811139541
 20
-263.0842708100327
 10
-23.08841732224687
 20
-263.0712137880162
 10
-23.09896878335441
 20
-263.0580634519841
 10
-23.10941249471805
 20
-263.0448198019367
 10
-23.11974845633776
 20
-263.0314828378736
 10
-23.12997666821355
 20
-263.0180525597952
 10
-23.14009713034542
 20
-263.0045289677012
 10
-23.15010984273337
 20
-262.9909120615918
 10
-23.16001480537741
 20
-262.9772018414668
 10
-23.16981201827754
 20
-262.9633983073264
 10
-23.17950148143374
 20
-262.9495014591705
 10
-23.18908319484602
 20
-262.9355112969991
 10
-23.19855715851439
 20
-262.9214278208122
 10
-23.20790365286707
 20
-262.9072806099676
 10
-23.21710295833231
 20
-262.8930992438226
 10
-23.22615507491009
 20
-262.8788837223776
 10
-23.23506000260045
 20
-262.8646340456323
 10
-23.24381774140336
 20
-262.8503502135867
 10
-23.25242829131882
 20
-262.8360322262411
 10
-23.26089165234684
 20
-262.8216800835952
 10
-23.26920782448741
 20
-262.8072937856491
 10
-23.27737680774055
 20
-262.7928733324028
 10
-23.28539860210624
 20
-262.7784187238563
 10
-23.29327320758448
 20
-262.7639299600096
 10
-23.30100062417528
 20
-262.7494070408628
 10
-23.30858085187864
 20
-262.7348499664157
 10
-23.31601389069455
 20
-262.7202587366685
 10
-23.32329974062302
 20
-262.705633351621
 10
-23.33043840166405
 20
-262.6909738112733
 10
-23.33742987381763
 20
-262.6762801156254
 10
-23.34427415708376
 20
-262.6615522646774
 10
-23.35097125146246
 20
-262.6467902584292
 10
-23.35752115695371
 20
-262.6319940968807
 10
-23.36392387355752
 20
-262.6171637800321
 10
-23.37017940127388
 20
-262.6022993078832
 10
-23.3762877401028
 20
-262.5874006804342
 10
-23.38224889004427
 20
-262.572467897685
 10
-23.3880628510983
 20
-262.5575009596356
 10
-23.39372962326488
 20
-262.542499866286
 10
-23.39924920654403
 20
-262.5274646176361
 10
-23.40462160093573
 20
-262.5123952136861
 10
-23.40984680643999
 20
-262.4972916544359
 10
-23.4149248230568
 20
-262.4821539398855
 10
-23.41985565078616
 20
-262.4669820700349
 10
-23.42463928962807
 20
-262.4517760448841
 10
-23.42927573958257
 20
-262.4365358644331
 10
-23.4337650006496
 20
-262.421261528682
 10
-23.43810707282919
 20
-262.4059530376305
 10
-23.44230195612134
 20
-262.3906103912789
 10
-23.44634965052605
 20
-262.3752335896271
 10
-23.45025015604331
 20
-262.3598226326752
 10
-23.45400347267313
 20
-262.344377520423
 10
-23.4576096004155
 20
-262.3288982528706
 10
-23.46106853927043
 20
-262.3133848300181
 10
-23.46438028923791
 20
-262.2978372518653
 10
-23.46754485031796
 20
-262.2822555184123
 10
-23.47056222251055
 20
-262.2666396296592
 10
-23.47343240581571
 20
-262.2509895856057
 10
-23.47615540023343
 20
-262.2353053862523
 10
-23.4787312057637
 20
-262.2195870315985
 10
-23.48115982240651
 20
-262.2038345216446
 10
-23.48344125016189
 20
-262.1880478563904
 10
-23.48557548902983
 20
-262.1722270358361
 10
-23.48756253901032
 20
-262.1563720599815
 10
-23.48940240010337
 20
-262.1404829288268
 10
-23.49109507230897
 20
-262.1245596423719
 10
-23.49264055562713
 20
-262.1086022006168
 10
-23.49403885005785
 20
-262.0926106035615
 10
-23.49528995560112
 20
-262.076584851206
 10
-23.49639387225694
 20
-262.0605249435503
 10
-23.49735060002533
 20
-262.0444308805943
 10
-23.49816013890627
 20
-262.0283026623382
 10
-23.49882248889977
 20
-262.012140288782
 10
-23.49933765000582
 20
-261.9959437599255
 10
-23.49970562222443
 20
-261.9797130757688
 10
-23.4999264055556
 20
-261.9634482363119
 10
-23.49999999999932
 20
-261.9471492415548
 10
-23.4999264055556
 20
-261.9308502467977
 10
-23.49970562222443
 20
-261.9145854073408
 10
-23.49933765000582
 20
-261.8983547231841
 10
-23.49882248889977
 20
-261.8821581943276
 10
-23.49816013890627
 20
-261.8659958207713
 10
-23.49735060002533
 20
-261.8498676025152
 10
-23.49639387225694
 20
-261.8337735395593
 10
-23.49528995560112
 20
-261.8177136319036
 10
-23.49403885005785
 20
-261.8016878795481
 10
-23.49264055562713
 20
-261.7856962824928
 10
-23.49109507230897
 20
-261.7697388407377
 10
-23.48940240010337
 20
-261.7538155542827
 10
-23.48756253901032
 20
-261.737926423128
 10
-23.48557548902983
 20
-261.7220714472734
 10
-23.48344125016189
 20
-261.7062506267191
 10
-23.48115982240651
 20
-261.690463961465
 10
-23.4787312057637
 20
-261.674711451511
 10
-23.47615540023343
 20
-261.6589930968573
 10
-23.47343240581571
 20
-261.6433088975037
 10
-23.47056222251055
 20
-261.6276588534504
 10
-23.46754485031796
 20
-261.6120429646973
 10
-23.46438028923791
 20
-261.5964612312442
 10
-23.46106853927043
 20
-261.5809136530915
 10
-23.4576096004155
 20
-261.5654002302389
 10
-23.45400347267313
 20
-261.5499209626865
 10
-23.45025015604331
 20
-261.5344758504345
 10
-23.44634965052605
 20
-261.5190648934824
 10
-23.44230195612134
 20
-261.5036880918306
 10
-23.43810707282919
 20
-261.488345445479
 10
-23.4337650006496
 20
-261.4730369544276
 10
-23.42927573958257
 20
-261.4577626186764
 10
-23.42463928962807
 20
-261.4425224382254
 10
-23.41985565078616
 20
-261.4273164130746
 10
-23.4149248230568
 20
-261.412144543224
 10
-23.40984680643999
 20
-261.3970068286736
 10
-23.40462160093573
 20
-261.3819032694234
 10
-23.39924920654403
 20
-261.3668338654735
 10
-23.39372962326488
 20
-261.3517986168236
 10
-23.3880628510983
 20
-261.336797523474
 10
-23.38224889004427
 20
-261.3218305854246
 10
-23.3762877401028
 20
-261.3068978026753
 10
-23.37017940127388
 20
-261.2919991752263
 10
-23.36392387355752
 20
-261.2771347030774
 10
-23.35752115695371
 20
-261.2623043862289
 10
-23.35097125146246
 20
-261.2475082246804
 10
-23.34427415708376
 20
-261.2327462184321
 10
-23.33742987381763
 20
-261.2180183674841
 10
-23.33043840166405
 20
-261.2033246718362
 10
-23.32329974062302
 20
-261.1886651314884
 10
-23.31601389069455
 20
-261.174039746441
 10
-23.30858085187864
 20
-261.1594485166938
 10
-23.30100062417528
 20
-261.1448914422468
 10
-23.29327320758448
 20
-261.1303685230999
 10
-23.28539860210624
 20
-261.1158797592532
 10
-23.27737680774055
 20
-261.1014251507068
 10
-23.26920782448741
 20
-261.0870046974604
 10
-23.26089165234684
 20
-261.0726183995144
 10
-23.25242829131882
 20
-261.0582662568685
 10
-23.24381774140336
 20
-261.0439482695229
 10
-23.23506000260045
 20
-261.0296644374773
 10
-23.22615507491009
 20
-261.015414760732
 10
-23.21710295833231
 20
-261.0011992392869
 10
-23.20790365286707
 20
-260.987017873142
 10
-23.19855715851439
 20
-260.9728706622973
 10
-23.18908319484602
 20
-260.9587871861104
 10
-23.17950148143374
 20
-260.944797023939
 10
-23.16981201827754
 20
-260.9309001757831
 10
-23.16001480537741
 20
-260.9170966416428
 10
-23.15010984273337
 20
-260.9033864215178
 10
-23.14009713034542
 20
-260.8897695154084
 10
-23.12997666821355
 20
-260.8762459233144
 10
-23.11974845633776
 20
-260.8628156452359
 10
-23.10941249471805
 20
-260.8494786811728
 10
-23.09896878335441
 20
-260.8362350311254
 10
-23.08841732224687
 20
-260.8230846950934
 10
-23.07775811139541
 20
-260.8100276730768
 10
-23.06699115080002
 20
-260.7970639650757
 10
-23.05611644046072
 20
-260.7841935710902
 10
-23.04513398037749
 20
-260.7714164911201
 10
-23.03404377055036
 20
-260.7587327251656
 10
-23.02284581097929
 20
-260.7461422732264
 10
-23.01154010166432
 20
-260.7336451353028
 10
-23.00012664260542
 20
-260.7212413113946
 10
-22.98860543380261
 20
-260.708930801502
 10
-22.97697647525588
 20
-260.6967136056248
 10
-22.96523976696523
 20
-260.6845897237631
 10
-22.95339530893066
 20
-260.6725591559169
 10
-22.94144310115217
 20
-260.6606219020861
 10
-22.92938314362977
 20
-260.648777962271
 10
-22.91721543636345
 20
-260.6370273364712
 10
-22.9049399793532
 20
-260.6253700246869
 10
-22.89255677259905
 20
-260.6138060269182
 10
-22.88006581610097
 20
-260.6023353431649
 10
-22.86746710985897
 20
-260.5909579734271
 10
-22.85476065387305
 20
-260.5796739177047
 10
-22.84194644814322
 20
-260.5684831759979
 10
-22.82902449266947
 20
-260.5573857483065
 10
-22.8159947874518
 20
-260.5463816346306
 10
-22.80285733249021
 20
-260.5354708349702
 10
-22.7896121277847
 20
-260.5246533493253
 10
-22.77625917333528
 20
-260.5139291776959
 10
-22.76279846914193
 20
-260.503298320082
 10
-22.74923001520468
 20
-260.4927607764835
 10
-22.73555381152348
 20
-260.4823165469006
 10
-22.72176985809839
 20
-260.4719656313331
 10
-22.70787815492937
 20
-260.4617080297811
 10
-22.69387870201643
 20
-260.4515437422445
 10
-22.67977149935957
 20
-260.4414727687236
 10
-22.6655565469588
 20
-260.431495109218
 10
-22.65123384481411
 20
-260.4216107637279
 10
-22.6368033929255
 20
-260.4118197322533
 10
-22.62226519129297
 20
-260.4021220147942
 10
-22.60761923991652
 20
-260.3925176113506
 10
-22.59286553879616
 20
-260.3830065219225
 10
-22.57800408793187
 20
-260.3735887465099
 10
-22.56303488732367
 20
-260.3642642851128
 10
-22.54795793697155
 20
-260.3550331377311
 10
-22.53277323687551
 20
-260.3458953043649
 10
-22.51748078703554
 20
-260.3368507850143
 10
-22.50208058745167
 20
-260.327899579679
 10
-22.48657263812388
 20
-260.3190416883593
 10
-22.47095693905216
 20
-260.310277111055
 10
-22.45523349023653
 20
-260.3016058477663
 10
-22.43940229167698
 20
-260.293027898493
 10
-22.42346334337352
 20
-260.2845432632352
 10
-22.40741664532613
 20
-260.2761519419928
 10
-22.39126219753483
 20
-260.2678539347661
 10
-22.3749999999996
 20
-260.2596492415548
 10
-22.3749999999996
 20
-260.2596492415548
  0
LWPOLYLINE
  5
4BF
330
914
100
AcDbEntity
  8
DATA
  6
Continuous
 62
     7
100
AcDbPolyline
 90
      770
 70
   129
 43
0.0
 10
-22.74999999999966
 20
-259.6558808997898
 10
-22.72821894402773
 20
-259.6450884977288
 10
-22.7063853025311
 20
-259.6344660547554
 10
-22.68449907550977
 20
-259.6240135708696
 10
-22.66256026296375
 20
-259.6137310460713
 10
-22.64056886489301
 20
-259.6036184803606
 10
-22.61852488129759
 20
-259.5936758737374
 10
-22.59642831217745
 20
-259.5839032262019
 10
-22.57427915753263
 20
-259.5743005377539
 10
-22.55207741736309
 20
-259.5648678083935
 10
-22.52982309166886
 20
-259.5556050381207
 10
-22.50751618044993
 20
-259.5465122269354
 10
-22.48515668370629
 20
-259.5375893748377
 10
-22.46274460143796
 20
-259.5288364818276
 10
-22.44027993364492
 20
-259.5202535479051
 10
-22.41776268032718
 20
-259.5118405730701
 10
-22.39519284148475
 20
-259.5035975573228
 10
-22.37257041711762
 20
-259.4955245006629
 10
-22.34989540722578
 20
-259.4876214030908
 10
-22.32716781180924
 20
-259.4798882646061
 10
-22.30438763086801
 20
-259.472325085209
 10
-22.28155486440206
 20
-259.4649318648994
 10
-22.25866951241143
 20
-259.4577086036775
 10
-22.23573157489609
 20
-259.4506553015432
 10
-22.21274105185605
 20
-259.4437719584964
 10
-22.18969794329131
 20
-259.4370585745372
 10
-22.16660224920186
 20
-259.4305151496656
 10
-22.14345396958772
 20
-259.4241416838816
 10
-22.12025310444888
 20
-259.4179381771851
 10
-22.09699965378533
 20
-259.4119046295761
 10
-22.0736936175971
 20
-259.4060410410548
 10
-22.05033499588415
 20
-259.400347411621
 10
-22.0269237886465
 20
-259.3948237412749
 10
-22.00345999588417
 20
-259.3894700300162
 10
-21.97994361759711
 20
-259.3842862778452
 10
-21.95637465378537
 20
-259.3792724847617
 10
-21.93275310444892
 20
-259.3744286507659
 10
-21.90907896958778
 20
-259.3697547758576
 10
-21.88535224920193
 20
-259.3652508600369
 10
-21.86157294329138
 20
-259.3609169033037
 10
-21.83774105185613
 20
-259.3567529056581
 10
-21.81385657489618
 20
-259.3527588671001
 10
-21.78991951241153
 20
-259.3489347876297
 10
-21.76592986440219
 20
-259.3452806672468
 10
-21.74188763086813
 20
-259.3417965059515
 10
-21.71779281180939
 20
-259.3384823037437
 10
-21.69364540722592
 20
-259.3353380606237
 10
-21.66944541711777
 20
-259.3323637765911
 10
-21.64519284148493
 20
-259.3295594516461
 10
-21.62088768032737
 20
-259.3269250857888
 10
-21.59652993364511
 20
-259.3244606790189
 10
-21.57211960143816
 20
-259.3221662313366
 10
-21.5476566837065
 20
-259.3200417427419
 10
-21.52314118045014
 20
-259.3180872132348
 10
-21.49857309166909
 20
-259.3163026428152
 10
-21.47395241736334
 20
-259.3146880314833
 10
-21.44927915753288
 20
-259.3132433792389
 10
-21.42455331217772
 20
-259.3119686860821
 10
-21.39977488129786
 20
-259.3108639520129
 10
-21.3749438648933
 20
-259.3099291770311
 10
-21.35006026296405
 20
-259.3091643611372
 10
-21.32512407551008
 20
-259.3085695043306
 10
-21.30013530253143
 20
-259.3081446066117
 10
-21.27509394402807
 20
-259.3078896679804
 10
-21.25
 20
-259.3078046884365
 10
-21.22490605597193
 20
-259.3078896679804
 10
-21.19986469746857
 20
-259.3081446066117
 10
-21.17487592448992
 20
-259.3085695043306
 10
-21.14993973703596
 20
-259.3091643611372
 10
-21.1250561351067
 20
-259.3099291770311
 10
-21.10022511870214
 20
-259.3108639520129
 10
-21.07544668782228
 20
-259.3119686860821
 10
-21.05072084246712
 20
-259.3132433792389
 10
-21.02604758263666
 20
-259.3146880314833
 10
-21.00142690833091
 20
-259.3163026428152
 10
-20.97685881954985
 20
-259.3180872132348
 10
-20.9523433162935
 20
-259.3200417427419
 10
-20.92788039856184
 20
-259.3221662313366
 10
-20.90347006635489
 20
-259.3244606790189
 10
-20.87911231967263
 20
-259.3269250857888
 10
-20.85480715851508
 20
-259.3295594516461
 10
-20.83055458288223
 20
-259.3323637765911
 10
-20.80635459277408
 20
-259.3353380606237
 10
-20.78220718819061
 20
-259.3384823037437
 10
-20.75811236913187
 20
-259.3417965059515
 10
-20.73407013559782
 20
-259.3452806672468
 10
-20.71008048758847
 20
-259.3489347876297
 10
-20.68614342510382
 20
-259.3527588671001
 10
-20.66225894814387
 20
-259.3567529056581
 10
-20.63842705670863
 20
-259.3609169033037
 10
-20.61464775079807
 20
-259.3652508600369
 10
-20.59092103041223
 20
-259.3697547758576
 10
-20.56724689555108
 20
-259.3744286507659
 10
-20.54362534621464
 20
-259.3792724847617
 10
-20.52005638240289
 20
-259.3842862778452
 10
-20.49654000411584
 20
-259.3894700300162
 10
-20.47307621135349
 20
-259.3948237412749
 10
-20.44966500411585
 20
-259.400347411621
 10
-20.42630638240291
 20
-259.4060410410548
 10
-20.40300034621466
 20
-259.4119046295761
 10
-20.37974689555112
 20
-259.4179381771851
 10
-20.35654603041228
 20
-259.4241416838816
 10
-20.33339775079813
 20
-259.4305151496656
 10
-20.31030205670869
 20
-259.4370585745372
 10
-20.28725894814396
 20
-259.4437719584964
 10
-20.26426842510391
 20
-259.4506553015432
 10
-20.24133048758857
 20
-259.4577086036775
 10
-20.21844513559793
 20
-259.4649318648994
 10
-20.195612369132
 20
-259.472325085209
 10
-20.17283218819076
 20
-259.4798882646061
 10
-20.15010459277423
 20
-259.4876214030908
 10
-20.12742958288239
 20
-259.4955245006629
 10
-20.10480715851525
 20
-259.5035975573228
 10
-20.08223731967281
 20
-259.5118405730701
 10
-20.05972006635508
 20
-259.5202535479051
 10
-20.03725539856205
 20
-259.5288364818276
 10
-20.01484331629371
 20
-259.5375893748377
 10
-19.99248381955007
 20
-259.5465122269354
 10
-19.97017690833114
 20
-259.5556050381207
 10
-19.94792258263691
 20
-259.5648678083935
 10
-19.92572084246737
 20
-259.5743005377539
 10
-19.90357168782255
 20
-259.5839032262019
 10
-19.88147511870241
 20
-259.5936758737374
 10
-19.85943113510699
 20
-259.6036184803606
 10
-19.83743973703625
 20
-259.6137310460713
 10
-19.81550092449023
 20
-259.6240135708696
 10
-19.79361469746889
 20
-259.6344660547554
 10
-19.77178105597226
 20
-259.6450884977288
 10
-19.75000000000034
 20
-259.6558808997898
 10
-19.72831706995337
 20
-259.6668204907383
 10
-19.70677780623164
 20
-259.677884500374
 10
-19.68538220883512
 20
-259.6890729286971
 10
-19.66413027776383
 20
-259.7003857757075
 10
-19.64302201301777
 20
-259.7118230414052
 10
-19.62205741459692
 20
-259.7233847257902
 10
-19.60123648250131
 20
-259.7350708288626
 10
-19.58055921673091
 20
-259.7468813506221
 10
-19.56002561728573
 20
-259.7588162910692
 10
-19.5396356841658
 20
-259.7708756502034
 10
-19.51938941737108
 20
-259.783059428025
 10
-19.49928681690158
 20
-259.7953676245339
 10
-19.4793278827573
 20
-259.8078002397301
 10
-19.45951261493826
 20
-259.8203572736136
 10
-19.43984101344445
 20
-259.8330387261845
 10
-19.42031307827584
 20
-259.8458445974426
 10
-19.40092880943248
 20
-259.858774887388
 10
-19.38168820691432
 20
-259.8718295960208
 10
-19.3625912707214
 20
-259.8850087233409
 10
-19.34363800085371
 20
-259.8983122693482
 10
-19.32482839731123
 20
-259.9117402340429
 10
-19.30616246009398
 20
-259.925292617425
 10
-19.28764018920196
 20
-259.9389694194944
 10
-19.26926158463516
 20
-259.9527706402509
 10
-19.25102664639357
 20
-259.9666962796949
 10
-19.23293537447722
 20
-259.9807463378261
 10
-19.21498776888611
 20
-259.9949208146447
 10
-19.1971838296202
 20
-260.0092197101506
 10
-19.17952355667953
 20
-260.0236430243439
 10
-19.16200695006407
 20
-260.0381907572244
 10
-19.14463400977384
 20
-260.0528629087923
 10
-19.12740473580884
 20
-260.0676594790473
 10
-19.11031912816906
 20
-260.0825804679898
 10
-19.0933771868545
 20
-260.0976258756196
 10
-19.07657891186517
 20
-260.1127957019367
 10
-19.05992430320107
 20
-260.1280899469411
 10
-19.04341336086219
 20
-260.1435086106328
 10
-19.02704608484853
 20
-260.1590516930118
 10
-19.0108224751601
 20
-260.1747191940781
 10
-18.99474253179689
 20
-260.1905111138318
 10
-18.97880625475891
 20
-260.2064274522728
 10
-18.96301364404615
 20
-260.222468209401
 10
-18.94736469965861
 20
-260.2386333852166
 10
-18.93185942159631
 20
-260.2549229797195
 10
-18.91649780985923
 20
-260.2713369929097
 10
-18.90127986444736
 20
-260.2878754247872
 10
-18.88620558536073
 20
-260.3045382753521
 10
-18.87127497259932
 20
-260.3213255446041
 10
-18.85648802616313
 20
-260.3382372325437
 10
-18.84184474605216
 20
-260.3552733391705
 10
-18.82734513226643
 20
-260.3724338644846
 10
-18.81298918480591
 20
-260.389718808486
 10
-18.79877690367063
 20
-260.4071281711746
 10
-18.78470828886056
 20
-260.4246619525507
 10
-18.77078334037572
 20
-260.4423201526141
 10
-18.75700205821611
 20
-260.4601027713647
 10
-18.74336444238172
 20
-260.4780098088026
 10
-18.72987049287256
 20
-260.4960412649279
 10
-18.71652020968861
 20
-260.5141971397405
 10
-18.70331359282989
 20
-260.5324774332404
 10
-18.6902506422964
 20
-260.5508821454276
 10
-18.67733135808813
 20
-260.5694112763022
 10
-18.66455574020509
 20
-260.588064825864
 10
-18.65192378864727
 20
-260.6068427941132
 10
-18.63946179617703
 20
-260.6257057419061
 10
-18.62719605555671
 20
-260.6446142300993
 10
-18.61512656678632
 20
-260.6635682586928
 10
-18.60325332986585
 20
-260.6825678276865
 10
-18.59157634479531
 20
-260.7016129370805
 10
-18.58009561157469
 20
-260.7207035868747
 10
-18.568811130204
 20
-260.7398397770693
 10
-18.55772290068323
 20
-260.7590215076641
 10
-18.54683092301239
 20
-260.7782487786591
 10
-18.53613519719147
 20
-260.7975215900544
 10
-18.52563572322048
 20
-260.81683994185
 10
-18.5153325010994
 20
-260.8362038340458
 10
-18.50522553082826
 20
-260.8556132666419
 10
-18.49531481240705
 20
-260.8750682396383
 10
-18.48560034583576
 20
-260.8945687530348
 10
-18.47608213111439
 20
-260.9141148068317
 10
-18.46676016824295
 20
-260.9337064010289
 10
-18.45763445722143
 20
-260.9533435356262
 10
-18.44870499804984
 20
-260.9730262106239
 10
-18.43997179072817
 20
-260.9927544260218
 10
-18.43143483525643
 20
-261.01252818182
 10
-18.42309413163461
 20
-261.0323474780184
 10
-18.41494967986272
 20
-261.0522123146171
 10
-18.40700147994076
 20
-261.0721226916161
 10
-18.39924953186872
 20
-261.0920786090154
 10
-18.3916938356466
 20
-261.1120800668149
 10
-18.38433439127441
 20
-261.1321270650146
 10
-18.37717119875214
 20
-261.1522196036146
 10
-18.3702042580798
 20
-261.1723576826149
 10
-18.36343356925738
 20
-261.1925413020154
 10
-18.3568591322849
 20
-261.2127704618163
 10
-18.35048094716233
 20
-261.2330451620173
 10
-18.34429901388968
 20
-261.2533654026186
 10
-18.33831333246697
 20
-261.2737311836203
 10
-18.33252390289418
 20
-261.2941425050221
 10
-18.32693072517132
 20
-261.3145993668243
 10
-18.32153379929837
 20
-261.3351017690266
 10
-18.31633312527536
 20
-261.3556497116293
 10
-18.31132870310228
 20
-261.3762431946322
 10
-18.30652053277911
 20
-261.3968822180353
 10
-18.30190861430588
 20
-261.4175667818388
 10
-18.29749294768256
 20
-261.4382968860425
 10
-18.29327353290917
 20
-261.4590725306464
 10
-18.2892503699857
 20
-261.4798937156507
 10
-18.28542345891216
 20
-261.5007604410551
 10
-18.28179279968854
 20
-261.5216727068599
 10
-18.27835839231486
 20
-261.5426305130648
 10
-18.27512023679109
 20
-261.5636338596701
 10
-18.27207833311725
 20
-261.5846827466756
 10
-18.26923268129334
 20
-261.6057771740813
 10
-18.26658328131936
 20
-261.6269171418874
 10
-18.26413013319529
 20
-261.6481026500937
 10
-18.26187323692115
 20
-261.6693336987003
 10
-18.25981259249693
 20
-261.6906102877071
 10
-18.25794819992265
 20
-261.7119324171142
 10
-18.25628005919829
 20
-261.7333000869216
 10
-18.25480817032385
 20
-261.7547132971292
 10
-18.25353253329933
 20
-261.7761720477371
 10
-18.25245314812475
 20
-261.7976763387452
 10
-18.25157001480009
 20
-261.8192261701536
 10
-18.25088313332534
 20
-261.8408215419623
 10
-18.25039250370053
 20
-261.8624624541713
 10
-18.25009812592565
 20
-261.8841489067804
 10
-18.25000000000068
 20
-261.9058808997898
 10
-18.25009812592565
 20
-261.9276128927993
 10
-18.25039250370053
 20
-261.9492993454084
 10
-18.25088313332534
 20
-261.9709402576174
 10
-18.25157001480009
 20
-261.9925356294261
 10
-18.25245314812475
 20
-262.0140854608345
 10
-18.25353253329933
 20
-262.0355897518426
 10
-18.25480817032385
 20
-262.0570485024505
 10
-18.25628005919829
 20
-262.0784617126582
 10
-18.25794819992265
 20
-262.0998293824655
 10
-18.25981259249693
 20
-262.1211515118726
 10
-18.26187323692115
 20
-262.1424281008794
 10
-18.26413013319529
 20
-262.163659149486
 10
-18.26658328131936
 20
-262.1848446576923
 10
-18.26923268129334
 20
-262.2059846254984
 10
-18.27207833311725
 20
-262.2270790529041
 10
-18.27512023679109
 20
-262.2481279399096
 10
-18.27835839231486
 20
-262.2691312865149
 10
-18.28179279968854
 20
-262.2900890927199
 10
-18.28542345891216
 20
-262.3110013585246
 10
-18.2892503699857
 20
-262.3318680839291
 10
-18.29327353290917
 20
-262.3526892689333
 10
-18.29749294768256
 20
-262.3734649135372
 10
-18.30190861430588
 20
-262.394195017741
 10
-18.30652053277911
 20
-262.4148795815444
 10
-18.31132870310228
 20
-262.4355186049475
 10
-18.31633312527536
 20
-262.4561120879504
 10
-18.32153379929837
 20
-262.4766600305531
 10
-18.32693072517132
 20
-262.4971624327554
 10
-18.33252390289418
 20
-262.5176192945576
 10
-18.33831333246697
 20
-262.5380306159594
 10
-18.34429901388968
 20
-262.558396396961
 10
-18.35048094716233
 20
-262.5787166375624
 10
-18.3568591322849
 20
-262.5989913377634
 10
-18.36343356925738
 20
-262.6192204975642
 10
-18.3702042580798
 20
-262.6394041169648
 10
-18.37717119875214
 20
-262.6595421959651
 10
-18.38433439127441
 20
-262.6796347345651
 10
-18.3916938356466
 20
-262.6996817327648
 10
-18.39924953186872
 20
-262.7196831905643
 10
-18.40700147994076
 20
-262.7396391079636
 10
-18.41494967986272
 20
-262.7595494849626
 10
-18.42309413163461
 20
-262.7794143215613
 10
-18.43143483525643
 20
-262.7992336177597
 10
-18.43997179072817
 20
-262.8190073735579
 10
-18.44870499804984
 20
-262.8387355889558
 10
-18.45763445722143
 20
-262.8584182639535
 10
-18.46676016824295
 20
-262.8780553985508
 10
-18.47608213111439
 20
-262.897646992748
 10
-18.48560034583576
 20
-262.9171930465449
 10
-18.49531481240705
 20
-262.9366935599414
 10
-18.50522553082826
 20
-262.9561485329377
 10
-18.5153325010994
 20
-262.9755579655339
 10
-18.52563572322048
 20
-262.9949218577297
 10
-18.53613519719147
 20
-263.0142402095253
 10
-18.54683092301239
 20
-263.0335130209206
 10
-18.55772290068323
 20
-263.0527402919156
 10
-18.568811130204
 20
-263.0719220225104
 10
-18.58009561157469
 20
-263.091058212705
 10
-18.59157634479531
 20
-263.1101488624992
 10
-18.60325332986585
 20
-263.1291939718932
 10
-18.61512656678632
 20
-263.1481935408869
 10
-18.62719605555671
 20
-263.1671475694804
 10
-18.63946179617703
 20
-263.1860560576736
 10
-18.65192378864727
 20
-263.2049190054665
 10
-18.66455574020509
 20
-263.2236969737157
 10
-18.67733135808813
 20
-263.2423505232775
 10
-18.6902506422964
 20
-263.2608796541521
 10
-18.70331359282989
 20
-263.2792843663393
 10
-18.71652020968861
 20
-263.2975646598392
 10
-18.72987049287256
 20
-263.3157205346518
 10
-18.74336444238172
 20
-263.333751990777
 10
-18.75700205821611
 20
-263.351659028215
 10
-18.77078334037572
 20
-263.3694416469656
 10
-18.78470828886056
 20
-263.3870998470289
 10
-18.79877690367063
 20
-263.404633628405
 10
-18.81298918480591
 20
-263.4220429910937
 10
-18.82734513226643
 20
-263.4393279350951
 10
-18.84184474605216
 20
-263.4564884604092
 10
-18.85648802616313
 20
-263.4735245670361
 10
-18.87127497259932
 20
-263.4904362549755
 10
-18.88620558536073
 20
-263.5072235242276
 10
-18.90127986444736
 20
-263.5238863747925
 10
-18.91649780985923
 20
-263.54042480667
 10
-18.93185942159631
 20
-263.5568388198603
 10
-18.94736469965861
 20
-263.573128414363
 10
-18.96301364404615
 20
-263.5892935901787
 10
-18.97880625475891
 20
-263.6053343473069
 10
-18.99474253179689
 20
-263.6212506857479
 10
-19.0108224751601
 20
-263.6370426055016
 10
-19.02704608484853
 20
-263.6527101065679
 10
-19.04341336086219
 20
-263.6682531889469
 10
-19.05992430320107
 20
-263.6836718526386
 10
-19.07657891186517
 20
-263.698966097643
 10
-19.0933771868545
 20
-263.7141359239601
 10
-19.11031912816906
 20
-263.72918133159
 10
-19.12740473580884
 20
-263.7441023205324
 10
-19.14463400977384
 20
-263.7588988907874
 10
-19.16200695006407
 20
-263.7735710423553
 10
-19.17952355667953
 20
-263.7881187752359
 10
-19.1971838296202
 20
-263.8025420894291
 10
-19.21498776888611
 20
-263.816840984935
 10
-19.23293537447722
 20
-263.8310154617536
 10
-19.25102664639357
 20
-263.8450655198848
 10
-19.26926158463516
 20
-263.8589911593288
 10
-19.28764018920196
 20
-263.8727923800853
 10
-19.30616246009398
 20
-263.8864691821547
 10
-19.32482839731123
 20
-263.9000215655368
 10
-19.34363800085371
 20
-263.9134495302315
 10
-19.3625912707214
 20
-263.9267530762388
 10
-19.38168820691432
 20
-263.9399322035589
 10
-19.40092880943248
 20
-263.9529869121917
 10
-19.42031307827584
 20
-263.9659172021371
 10
-19.43984101344445
 20
-263.9787230733952
 10
-19.45951261493826
 20
-263.9914045259661
 10
-19.4793278827573
 20
-264.0039615598496
 10
-19.49928681690158
 20
-264.0163941750458
 10
-19.51938941737108
 20
-264.0287023715547
 10
-19.5396356841658
 20
-264.0408861493763
 10
-19.56002561728573
 20
-264.0529455085105
 10
-19.58055921673091
 20
-264.0648804489575
 10
-19.60123648250131
 20
-264.0766909707171
 10
-19.62205741459692
 20
-264.0883770737895
 10
-19.64302201301777
 20
-264.0999387581745
 10
-19.66413027776383
 20
-264.1113760238722
 10
-19.68538220883512
 20
-264.1226888708826
 10
-19.70677780623164
 20
-264.1338772992057
 10
-19.72831706995337
 20
-264.1449413088414
 10
-19.75000000000034
 20
-264.1558808997899
 10
-19.77178105597226
 20
-264.1666733018509
 10
-19.79361469746889
 20
-264.1772957448243
 10
-19.81550092449023
 20
-264.1877482287101
 10
-19.83743973703625
 20
-264.1980307535084
 10
-19.85943113510699
 20
-264.2081433192191
 10
-19.88147511870241
 20
-264.2180859258423
 10
-19.90357168782255
 20
-264.2278585733778
 10
-19.92572084246737
 20
-264.2374612618257
 10
-19.94792258263691
 20
-264.2468939911862
 10
-19.97017690833114
 20
-264.256156761459
 10
-19.99248381955007
 20
-264.2652495726444
 10
-20.01484331629371
 20
-264.274172424742
 10
-20.03725539856205
 20
-264.2829253177521
 10
-20.05972006635508
 20
-264.2915082516746
 10
-20.08223731967281
 20
-264.2999212265096
 10
-20.10480715851525
 20
-264.3081642422569
 10
-20.12742958288239
 20
-264.3162372989167
 10
-20.15010459277423
 20
-264.3241403964889
 10
-20.17283218819076
 20
-264.3318735349736
 10
-20.195612369132
 20
-264.3394367143707
 10
-20.21844513559793
 20
-264.3468299346803
 10
-20.24133048758857
 20
-264.3540531959021
 10
-20.26426842510391
 20
-264.3611064980365
 10
-20.28725894814396
 20
-264.3679898410833
 10
-20.31030205670869
 20
-264.3747032250425
 10
-20.33339775079813
 20
-264.3812466499141
 10
-20.35654603041228
 20
-264.3876201156981
 10
-20.37974689555112
 20
-264.3938236223946
 10
-20.40300034621466
 20
-264.3998571700036
 10
-20.42630638240291
 20
-264.4057207585249
 10
-20.44966500411585
 20
-264.4114143879586
 10
-20.47307621135349
 20
-264.4169380583048
 10
-20.49654000411584
 20
-264.4222917695635
 10
-20.52005638240289
 20
-264.4274755217345
 10
-20.54362534621464
 20
-264.432489314818
 10
-20.56724689555108
 20
-264.4373331488139
 10
-20.59092103041223
 20
-264.4420070237221
 10
-20.61464775079807
 20
-264.4465109395428
 10
-20.63842705670863
 20
-264.450844896276
 10
-20.66225894814387
 20
-264.4550088939216
 10
-20.68614342510382
 20
-264.4590029324795
 10
-20.71008048758847
 20
-264.46282701195
 10
-20.73407013559782
 20
-264.4664811323329
 10
-20.75811236913187
 20
-264.4699652936282
 10
-20.78220718819061
 20
-264.4732794958359
 10
-20.80635459277408
 20
-264.476423738956
 10
-20.83055458288223
 20
-264.4793980229886
 10
-20.85480715851508
 20
-264.4822023479336
 10
-20.87911231967263
 20
-264.484836713791
 10
-20.90347006635489
 20
-264.4873011205608
 10
-20.92788039856184
 20
-264.4895955682431
 10
-20.9523433162935
 20
-264.4917200568378
 10
-20.97685881954985
 20
-264.4936745863449
 10
-21.00142690833091
 20
-264.4954591567645
 10
-21.02604758263666
 20
-264.4970737680965
 10
-21.05072084246712
 20
-264.4985184203408
 10
-21.07544668782228
 20
-264.4997931134976
 10
-21.10022511870214
 20
-264.5008978475668
 10
-21.1250561351067
 20
-264.5018326225485
 10
-21.14993973703596
 20
-264.5025974384425
 10
-21.17487592448992
 20
-264.503192295249
 10
-21.19986469746857
 20
-264.5036171929679
 10
-21.22490605597193
 20
-264.5038721315994
 10
-21.25
 20
-264.5039571111432
 10
-21.27509394402807
 20
-264.5038721315994
 10
-21.30013530253143
 20
-264.5036171929679
 10
-21.32512407551008
 20
-264.503192295249
 10
-21.35006026296405
 20
-264.5025974384425
 10
-21.3749438648933
 20
-264.5018326225485
 10
-21.39977488129786
 20
-264.5008978475668
 10
-21.42455331217772
 20
-264.4997931134976
 10
-21.44927915753288
 20
-264.4985184203408
 10
-21.47395241736334
 20
-264.4970737680965
 10
-21.49857309166909
 20
-264.4954591567645
 10
-21.52314118045014
 20
-264.4936745863449
 10
-21.5476566837065
 20
-264.4917200568378
 10
-21.57211960143816
 20
-264.4895955682431
 10
-21.59652993364511
 20
-264.4873011205608
 10
-21.62088768032737
 20
-264.484836713791
 10
-21.64519284148493
 20
-264.4822023479336
 10
-21.66944541711777
 20
-264.4793980229886
 10
-21.69364540722592
 20
-264.476423738956
 10
-21.71779281180939
 20
-264.4732794958359
 10
-21.74188763086813
 20
-264.4699652936282
 10
-21.76592986440219
 20
-264.4664811323329
 10
-21.78991951241153
 20
-264.46282701195
 10
-21.81385657489618
 20
-264.4590029324795
 10
-21.83774105185613
 20
-264.4550088939216
 10
-21.86157294329138
 20
-264.450844896276
 10
-21.88535224920193
 20
-264.4465109395428
 10
-21.90907896958778
 20
-264.4420070237221
 10
-21.93275310444892
 20
-264.4373331488139
 10
-21.95637465378537
 20
-264.432489314818
 10
-21.97994361759711
 20
-264.4274755217345
 10
-22.00345999588417
 20
-264.4222917695635
 10
-22.0269237886465
 20
-264.4169380583048
 10
-22.05033499588415
 20
-264.4114143879586
 10
-22.0736936175971
 20
-264.4057207585249
 10
-22.09699965378533
 20
-264.3998571700036
 10
-22.12025310444888
 20
-264.3938236223946
 10
-22.14345396958772
 20
-264.3876201156981
 10
-22.16660224920186
 20
-264.3812466499141
 10
-22.18969794329131
 20
-264.3747032250425
 10
-22.21274105185605
 20
-264.3679898410833
 10
-22.23573157489609
 20
-264.3611064980365
 10
-22.25866951241143
 20
-264.3540531959021
 10
-22.28155486440206
 20
-264.3468299346803
 10
-22.30438763086801
 20
-264.3394367143707
 10
-22.32716781180924
 20
-264.3318735349736
 10
-22.34989540722578
 20
-264.3241403964889
 10
-22.37257041711762
 20
-264.3162372989167
 10
-22.39519284148475
 20
-264.3081642422569
 10
-22.41776268032718
 20
-264.2999212265096
 10
-22.44027993364492
 20
-264.2915082516746
 10
-22.46274460143796
 20
-264.2829253177521
 10
-22.48515668370629
 20
-264.274172424742
 10
-22.50751618044993
 20
-264.2652495726444
 10
-22.52982309166886
 20
-264.256156761459
 10
-22.55207741736309
 20
-264.2468939911862
 10
-22.57427915753263
 20
-264.2374612618257
 10
-22.59642831217745
 20
-264.2278585733778
 10
-22.61852488129759
 20
-264.2180859258423
 10
-22.64056886489301
 20
-264.2081433192191
 10
-22.66256026296375
 20
-264.1980307535084
 10
-22.68449907550977
 20
-264.1877482287101
 10
-22.7063853025311
 20
-264.1772957448243
 10
-22.72821894402773
 20
-264.1666733018509
 10
-22.74999999999966
 20
-264.1558808997899
 10
-22.77168293004663
 20
-264.1449413088414
 10
-22.79322219376836
 20
-264.1338772992057
 10
-22.81461779116488
 20
-264.1226888708826
 10
-22.83586972223617
 20
-264.1113760238722
 10
-22.85697798698224
 20
-264.0999387581745
 10
-22.87794258540308
 20
-264.0883770737895
 10
-22.89876351749869
 20
-264.0766909707171
 10
-22.91944078326909
 20
-264.0648804489575
 10
-22.93997438271426
 20
-264.0529455085105
 10
-22.9603643158342
 20
-264.0408861493763
 10
-22.98061058262893
 20
-264.0287023715547
 10
-23.00071318309842
 20
-264.0163941750458
 10
-23.02067211724269
 20
-264.0039615598496
 10
-23.04048738506174
 20
-263.9914045259661
 10
-23.06015898655556
 20
-263.9787230733952
 10
-23.07968692172416
 20
-263.9659172021371
 10
-23.09907119056752
 20
-263.9529869121917
 10
-23.11831179308567
 20
-263.9399322035589
 10
-23.13740872927859
 20
-263.9267530762388
 10
-23.15636199914629
 20
-263.9134495302315
 10
-23.17517160268877
 20
-263.9000215655368
 10
-23.19383753990602
 20
-263.8864691821547
 10
-23.21235981079804
 20
-263.8727923800853
 10
-23.23073841536484
 20
-263.8589911593288
 10
-23.24897335360642
 20
-263.8450655198848
 10
-23.26706462552277
 20
-263.8310154617536
 10
-23.28501223111389
 20
-263.816840984935
 10
-23.3028161703798
 20
-263.8025420894291
 10
-23.32047644332047
 20
-263.7881187752359
 10
-23.33799304993593
 20
-263.7735710423553
 10
-23.35536599022616
 20
-263.7588988907874
 10
-23.37259526419116
 20
-263.7441023205324
 10
-23.38968087183094
 20
-263.72918133159
 10
-23.40662281314549
 20
-263.7141359239601
 10
-23.42342108813483
 20
-263.698966097643
 10
-23.44007569679893
 20
-263.6836718526386
 10
-23.45658663913781
 20
-263.6682531889469
 10
-23.47295391515146
 20
-263.6527101065679
 10
-23.48917752483989
 20
-263.6370426055016
 10
-23.50525746820311
 20
-263.6212506857479
 10
-23.52119374524109
 20
-263.6053343473069
 10
-23.53698635595385
 20
-263.5892935901787
 10
-23.55263530034139
 20
-263.573128414363
 10
-23.56814057840369
 20
-263.5568388198603
 10
-23.58350219014077
 20
-263.54042480667
 10
-23.59872013555264
 20
-263.5238863747925
 10
-23.61379441463927
 20
-263.5072235242276
 10
-23.62872502740068
 20
-263.4904362549755
 10
-23.64351197383687
 20
-263.4735245670361
 10
-23.65815525394783
 20
-263.4564884604092
 10
-23.67265486773357
 20
-263.4393279350951
 10
-23.68701081519409
 20
-263.4220429910937
 10
-23.70122309632937
 20
-263.404633628405
 10
-23.71529171113944
 20
-263.3870998470289
 10
-23.72921665962427
 20
-263.3694416469656
 10
-23.74299794178389
 20
-263.351659028215
 10
-23.75663555761828
 20
-263.333751990777
 10
-23.77012950712745
 20
-263.3157205346518
 10
-23.78347979031139
 20
-263.2975646598392
 10
-23.79668640717011
 20
-263.2792843663393
 10
-23.8097493577036
 20
-263.2608796541521
 10
-23.82266864191187
 20
-263.2423505232775
 10
-23.83544425979491
 20
-263.2236969737157
 10
-23.84807621135273
 20
-263.2049190054665
 10
-23.86053820382297
 20
-263.1860560576736
 10
-23.87280394444329
 20
-263.1671475694804
 10
-23.88487343321368
 20
-263.1481935408869
 10
-23.89674667013415
 20
-263.1291939718932
 10
-23.9084236552047
 20
-263.1101488624992
 10
-23.91990438842531
 20
-263.091058212705
 10
-23.931188869796
 20
-263.0719220225104
 10
-23.94227709931677
 20
-263.0527402919156
 10
-23.95316907698761
 20
-263.0335130209206
 10
-23.96386480280853
 20
-263.0142402095253
 10
-23.97436427677952
 20
-262.9949218577297
 10
-23.98466749890059
 20
-262.9755579655339
 10
-23.99477446917173
 20
-262.9561485329377
 10
-24.00468518759296
 20
-262.9366935599414
 10
-24.01439965416425
 20
-262.9171930465449
 10
-24.02391786888561
 20
-262.897646992748
 10
-24.03323983175705
 20
-262.8780553985508
 10
-24.04236554277857
 20
-262.8584182639535
 10
-24.05129500195016
 20
-262.8387355889558
 10
-24.06002820927183
 20
-262.8190073735579
 10
-24.06856516474357
 20
-262.7992336177597
 10
-24.07690586836539
 20
-262.7794143215613
 10
-24.08505032013728
 20
-262.7595494849626
 10
-24.09299852005925
 20
-262.7396391079636
 10
-24.10075046813128
 20
-262.7196831905643
 10
-24.1083061643534
 20
-262.6996817327648
 10
-24.11566560872559
 20
-262.6796347345651
 10
-24.12282880124786
 20
-262.6595421959651
 10
-24.1297957419202
 20
-262.6394041169648
 10
-24.13656643074261
 20
-262.6192204975642
 10
-24.1431408677151
 20
-262.5989913377634
 10
-24.14951905283767
 20
-262.5787166375624
 10
-24.15570098611031
 20
-262.558396396961
 10
-24.16168666753303
 20
-262.5380306159594
 10
-24.16747609710582
 20
-262.5176192945576
 10
-24.17306927482868
 20
-262.4971624327554
 10
-24.17846620070163
 20
-262.4766600305531
 10
-24.18366687472464
 20
-262.4561120879504
 10
-24.18867129689773
 20
-262.4355186049475
 10
-24.19347946722089
 20
-262.4148795815444
 10
-24.19809138569413
 20
-262.394195017741
 10
-24.20250705231745
 20
-262.3734649135372
 10
-24.20672646709082
 20
-262.3526892689333
 10
-24.2107496300143
 20
-262.3318680839291
 10
-24.21457654108784
 20
-262.3110013585246
 10
-24.21820720031145
 20
-262.2900890927199
 10
-24.22164160768514
 20
-262.2691312865149
 10
-24.22487976320891
 20
-262.2481279399096
 10
-24.22792166688275
 20
-262.2270790529041
 10
-24.23076731870665
 20
-262.2059846254984
 10
-24.23341671868064
 20
-262.1848446576923
 10
-24.23586986680471
 20
-262.163659149486
 10
-24.23812676307885
 20
-262.1424281008794
 10
-24.24018740750307
 20
-262.1211515118726
 10
-24.24205180007735
 20
-262.0998293824655
 10
-24.24371994080172
 20
-262.0784617126582
 10
-24.24519182967614
 20
-262.0570485024505
 10
-24.24646746670067
 20
-262.0355897518426
 10
-24.24754685187525
 20
-262.0140854608345
 10
-24.24842998519992
 20
-261.9925356294261
 10
-24.24911686667465
 20
-261.9709402576174
 10
-24.24960749629947
 20
-261.9492993454084
 10
-24.24990187407435
 20
-261.9276128927993
 10
-24.24999999999932
 20
-261.9058808997898
 10
-24.24990187407435
 20
-261.8841489067804
 10
-24.24960749629947
 20
-261.8624624541713
 10
-24.24911686667465
 20
-261.8408215419623
 10
-24.24842998519992
 20
-261.8192261701536
 10
-24.24754685187525
 20
-261.7976763387452
 10
-24.24646746670067
 20
-261.7761720477371
 10
-24.24519182967614
 20
-261.7547132971292
 10
-24.24371994080172
 20
-261.7333000869216
 10
-24.24205180007735
 20
-261.7119324171142
 10
-24.24018740750307
 20
-261.6906102877071
 10
-24.23812676307885
 20
-261.6693336987003
 10
-24.23586986680471
 20
-261.6481026500937
 10
-24.23341671868064
 20
-261.6269171418874
 10
-24.23076731870665
 20
-261.6057771740813
 10
-24.22792166688275
 20
-261.5846827466756
 10
-24.22487976320891
 20
-261.5636338596701
 10
-24.22164160768514
 20
-261.5426305130648
 10
-24.21820720031145
 20
-261.5216727068599
 10
-24.21457654108784
 20
-261.5007604410551
 10
-24.2107496300143
 20
-261.4798937156507
 10
-24.20672646709082
 20
-261.4590725306464
 10
-24.20250705231745
 20
-261.4382968860425
 10
-24.19809138569413
 20
-261.4175667818388
 10
-24.19347946722089
 20
-261.3968822180353
 10
-24.18867129689773
 20
-261.3762431946322
 10
-24.18366687472464
 20
-261.3556497116293
 10
-24.17846620070163
 20
-261.3351017690266
 10
-24.17306927482868
 20
-261.3145993668243
 10
-24.16747609710582
 20
-261.2941425050221
 10
-24.16168666753303
 20
-261.2737311836203
 10
-24.15570098611031
 20
-261.2533654026186
 10
-24.14951905283767
 20
-261.2330451620173
 10
-24.1431408677151
 20
-261.2127704618163
 10
-24.13656643074261
 20
-261.1925413020154
 10
-24.1297957419202
 20
-261.1723576826149
 10
-24.12282880124786
 20
-261.1522196036146
 10
-24.11566560872559
 20
-261.1321270650146
 10
-24.1083061643534
 20
-261.1120800668149
 10
-24.10075046813128
 20
-261.0920786090154
 10
-24.09299852005925
 20
-261.0721226916161
 10
-24.08505032013728
 20
-261.0522123146171
 10
-24.07690586836539
 20
-261.0323474780184
 10
-24.06856516474357
 20
-261.01252818182
 10
-24.06002820927183
 20
-260.9927544260218
 10
-24.05129500195016
 20
-260.9730262106239
 10
-24.04236554277857
 20
-260.9533435356262
 10
-24.03323983175705
 20
-260.9337064010289
 10
-24.02391786888561
 20
-260.9141148068317
 10
-24.01439965416425
 20
-260.8945687530348
 10
-24.00468518759296
 20
-260.8750682396383
 10
-23.99477446917173
 20
-260.8556132666419
 10
-23.98466749890059
 20
-260.8362038340458
 10
-23.97436427677952
 20
-260.81683994185
 10
-23.96386480280853
 20
-260.7975215900544
 10
-23.95316907698761
 20
-260.7782487786591
 10
-23.94227709931677
 20
-260.7590215076641
 10
-23.931188869796
 20
-260.7398397770693
 10
-23.91990438842531
 20
-260.7207035868747
 10
-23.9084236552047
 20
-260.7016129370805
 10
-23.89674667013415
 20
-260.6825678276865
 10
-23.88487343321368
 20
-260.6635682586928
 10
-23.87280394444329
 20
-260.6446142300993
 10
-23.86053820382297
 20
-260.6257057419061
 10
-23.84807621135273
 20
-260.6068427941132
 10
-23.83544425979491
 20
-260.588064825864
 10
-23.82266864191187
 20
-260.5694112763022
 10
-23.8097493577036
 20
-260.5508821454276
 10
-23.79668640717011
 20
-260.5324774332404
 10
-23.78347979031139
 20
-260.5141971397405
 10
-23.77012950712745
 20
-260.4960412649279
 10
-23.75663555761828
 20
-260.4780098088026
 10
-23.74299794178389
 20
-260.4601027713647
 10
-23.72921665962427
 20
-260.4423201526141
 10
-23.71529171113944
 20
-260.4246619525507
 10
-23.70122309632937
 20
-260.4071281711746
 10
-23.68701081519409
 20
-260.389718808486
 10
-23.67265486773357
 20
-260.3724338644846
 10
-23.65815525394783
 20
-260.3552733391705
 10
-23.64351197383687
 20
-260.3382372325437
 10
-23.62872502740068
 20
-260.3213255446041
 10
-23.61379441463927
 20
-260.3045382753521
 10
-23.59872013555264
 20
-260.2878754247872
 10
-23.58350219014077
 20
-260.2713369929097
 10
-23.56814057840369
 20
-260.2549229797195
 10
-23.55263530034139
 20
-260.2386333852166
 10
-23.53698635595385
 20
-260.222468209401
 10
-23.52119374524109
 20
-260.2064274522728
 10
-23.50525746820311
 20
-260.1905111138318
 10
-23.48917752483989
 20
-260.1747191940781
 10
-23.47295391515146
 20
-260.1590516930118
 10
-23.45658663913781
 20
-260.1435086106328
 10
-23.44007569679893
 20
-260.1280899469411
 10
-23.42342108813483
 20
-260.1127957019367
 10
-23.40662281314549
 20
-260.0976258756196
 10
-23.38968087183094
 20
-260.0825804679898
 10
-23.37259526419116
 20
-260.0676594790473
 10
-23.35536599022616
 20
-260.0528629087923
 10
-23.33799304993593
 20
-260.0381907572244
 10
-23.32047644332047
 20
-260.0236430243439
 10
-23.3028161703798
 20
-260.0092197101506
 10
-23.28501223111389
 20
-259.9949208146447
 10
-23.26706462552277
 20
-259.9807463378261
 10
-23.24897335360642
 20
-259.9666962796949
 10
-23.23073841536484
 20
-259.9527706402509
 10
-23.21235981079804
 20
-259.9389694194944
 10
-23.19383753990602
 20
-259.925292617425
 10
-23.17517160268877
 20
-259.9117402340429
 10
-23.15636199914629
 20
-259.8983122693482
 10
-23.13740872927859
 20
-259.8850087233409
 10
-23.11831179308567
 20
-259.8718295960208
 10
-23.09907119056752
 20
-259.858774887388
 10
-23.07968692172416
 20
-259.8458445974426
 10
-23.06015898655556
 20
-259.8330387261845
 10
-23.04048738506174
 20
-259.8203572736136
 10
-23.02067211724269
 20
-259.8078002397301
 10
-23.00071318309842
 20
-259.7953676245339
 10
-22.98061058262893
 20
-259.783059428025
 10
-22.9603643158342
 20
-259.7708756502034
 10
-22.93997438271426
 20
-259.7588162910692
 10
-22.91944078326909
 20
-259.7468813506221
 10
-22.89876351749869
 20
-259.7350708288626
 10
-22.87794258540308
 20
-259.7233847257902
 10
-22.85697798698224
 20
-259.7118230414052
 10
-22.83586972223617
 20
-259.7003857757075
 10
-22.81461779116488
 20
-259.6890729286971
 10
-22.79322219376836
 20
-259.677884500374
 10
-22.77168293004663
 20
-259.6668204907383
 10
-22.74999999999966
 20
-259.6558808997898
 10
-22.74999999999966
 20
-259.6558808997898
  0
ARC
  5
7C3
330
914
100
AcDbEntity
  8
DATA
  6
Continuous
 62
     7
100
AcDbCircle
 10
-150.0
 20
-250.0000000000013
 30
0.0
 40
24.00000000000064
100
AcDbArc
 50
102.0246991805655
 51
117.9753008194337
  0
ARC
  5
7C4
330
914
100
AcDbEntity
  8
DATA
  6
Continuous
 62
     7
100
AcDbCircle
 10
-150.0
 20
-250.0000000000013
 30
0.0
 40
24.00000000000073
100
AcDbArc
 50
142.0246991805657
 51
157.9753008194313
  0
ARC
  5
7C5
330
914
100
AcDbEntity
  8
DATA
  6
Continuous
 62
     7
100
AcDbCircle
 10
-150.0
 20
-250.0000000000013
 30
0.0
 40
24.00000000000071
100
AcDbArc
 50
22.02469918056881
 51
37.97530081943437
  0
ARC
  5
7C6
330
914
100
AcDbEntity
  8
DATA
  6
Continuous
 62
     7
100
AcDbCircle
 10
-150.0
 20
-250.0000000000013
 30
0.0
 40
24.00000000000064
100
AcDbArc
 50
62.02469918056689
 51
77.97530081943452
  0
ARC
  5
7C7
330
914
100
AcDbEntity
  8
DATA
  6
Continuous
 62
     7
100
AcDbCircle
 10
-150.0
 20
-250.0000000000001
 30
0.0
 40
23.7499999999994
100
AcDbArc
 50
101.1071592181349
 51
118.8928407818663
  0
ARC
  5
7C8
330
914
100
AcDbEntity
  8
DATA
  6
Continuous
 62
     7
100
AcDbCircle
 10
-150.0
 20
-250.0000000000001
 30
0.0
 40
23.7499999999995
100
AcDbArc
 50
141.1071592181352
 51
158.8928407818678
  0
ARC
  5
7C9
330
914
100
AcDbEntity
  8
DATA
  6
Continuous
 62
     7
100
AcDbCircle
 10
-150.0
 20
-250.0000000000001
 30
0.0
 40
23.74999999999948
100
AcDbArc
 50
181.1071592181338
 51
198.8928407818697
  0
ARC
  5
7CA
330
914
100
AcDbEntity
  8
DATA
  6
Continuous
 62
     7
100
AcDbCircle
 10
-150.0
 20
-250.0000000000001
 30
0.0
 40
23.74999999999946
100
AcDbArc
 50
221.1071592181322
 51
238.89284078187
  0
ARC
  5
7CB
330
914
100
AcDbEntity
  8
DATA
  6
Continuous
 62
     7
100
AcDbCircle
 10
-150.0
 20
-250.0000000000001
 30
0.0
 40
23.74999999999944
100
AcDbArc
 50
261.10715921813
 51
278.8928407818694
  0
ARC
  5
7CC
330
914
100
AcDbEntity
  8
DATA
  6
Continuous
 62
     7
100
AcDbCircle
 10
-150.0
 20
-250.0000000000001
 30
0.0
 40
23.74999999999941
100
AcDbArc
 50
301.1071592181295
 51
318.8928407818679
  0
ARC
  5
7CD
330
914
100
AcDbEntity
  8
DATA
  6
Continuous
 62
     7
100
AcDbCircle
 10
-150.0
 20
-250.0000000000001
 30
0.0
 40
23.7499999999994
100
AcDbArc
 50
341.1071592181305
 51
358.8928407818662
  0
ARC
  5
7CE
330
914
100
AcDbEntity
  8
DATA
  6
Continuous
 62
     7
100
AcDbCircle
 10
-150.0
 20
-250.0000000000001
 30
0.0
 40
23.74999999999937
100
AcDbArc
 50
21.10715921813239
 51
38.89284078186472
  0
ARC
  5
7CF
330
914
100
AcDbEntity
  8
DATA
  6
Continuous
 62
     7
100
AcDbCircle
 10
-150.0
 20
-250.0000000000001
 30
0.0
 40
23.74999999999941
100
AcDbArc
 50
61.1071592181338
 51
78.89284078186509
  0
CIRCLE
  5
7D0
330
914
100
AcDbEntity
  8
DATA
  6
Continuous
 62
     7
100
AcDbCircle
 10
-150.0
 20
-250.0000000000006
 30
0.0
 40
21.5
  0
ARC
  5
7D1
330
914
100
AcDbEntity
  8
DATA
  6
Continuous
 62
     7
100
AcDbCircle
 10
-150.0
 20
-214.5266108113896
 30
0.0
 40
13.0
100
AcDbArc
 50
247.3801350519596
 51
292.6198649480405
  0
ARC
  5
7D2
330
914
100
AcDbEntity
  8
DATA
  6
Continuous
 62
     7
100
AcDbCircle
 10
-127.1981449559725
 20
-222.8258073334684
 30
0.0
 40
12.99999999999993
100
AcDbArc
 50
207.3801350519597
 51
252.6198649480414
  0
ARC
  5
7D3
330
914
100
AcDbEntity
  8
DATA
  6
Continuous
 62
     7
100
AcDbCircle
 10
-115.0655313014365
 20
-243.8401106117286
 30
0.0
 40
12.99999999999996
100
AcDbArc
 50
167.3801350519595
 51
212.6198649480401
  0
ARC
  5
7D4
330
914
100
AcDbEntity
  8
DATA
  6
Continuous
 62
     7
100
AcDbCircle
 10
-119.2791438043305
 20
-267.7366945943061
 30
0.0
 40
13.00000000000015
100
AcDbArc
 50
127.3801350519603
 51
172.6198649480406
  0
ARC
  5
7D5
330
914
100
AcDbEntity
  8
DATA
  6
Continuous
 62
     7
100
AcDbCircle
 10
-137.8673863454642
 20
-283.3340820548051
 30
0.0
 40
13.00000000000003
100
AcDbArc
 50
87.3801350519588
 51
132.6198649480396
  0
ARC
  5
7D6
330
914
100
AcDbEntity
  8
DATA
  6
Continuous
 62
     7
100
AcDbCircle
 10
-162.132613654536
 20
-283.3340820548051
 30
0.0
 40
12.99999999999999
100
AcDbArc
 50
47.38013505195974
 51
92.6198649480402
  0
ARC
  5
7D7
330
914
100
AcDbEntity
  8
DATA
  6
Continuous
 62
     7
100
AcDbCircle
 10
-180.7208561956695
 20
-267.7366945943063
 30
0.0
 40
13.00000000000024
100
AcDbArc
 50
7.380135051959859
 51
52.61986494803968
  0
ARC
  5
7D8
330
914
100
AcDbEntity
  8
DATA
  6
Continuous
 62
     7
100
AcDbCircle
 10
-184.9344686985636
 20
-243.8401106117286
 30
0.0
 40
12.99999999999998
100
AcDbArc
 50
327.3801350519596
 51
12.61986494804028
  0
ARC
  5
7D9
330
914
100
AcDbEntity
  8
DATA
  6
Continuous
 62
     7
100
AcDbCircle
 10
-172.8018550440276
 20
-222.8258073334684
 30
0.0
 40
12.99999999999996
100
AcDbArc
 50
287.3801350519596
 51
332.6198649480405
  0
ARC
  5
7DA
330
914
100
AcDbEntity
  8
DATA
  6
Continuous
 62
     7
100
AcDbCircle
 10
-150.0
 20
-250.0000000000013
 30
0.0
 40
24.00000000000015
100
AcDbArc
 50
182.0246991805643
 51
197.975300819432
  0
ARC
  5
7DB
330
914
100
AcDbEntity
  8
DATA
  6
Continuous
 62
     7
100
AcDbCircle
 10
-150.0
 20
-250.0000000000013
 30
0.0
 40
23.99999999999995
100
AcDbArc
 50
222.024699180566
 51
237.9753008194314
  0
ARC
  5
7DC
330
914
100
AcDbEntity
  8
DATA
  6
Continuous
 62
     7
100
AcDbCircle
 10
-150.0
 20
-250.0000000000013
 30
0.0
 40
24.00000000000002
100
AcDbArc
 50
262.0246991805677
 51
277.9753008194323
  0
ARC
  5
7DD
330
914
100
AcDbEntity
  8
DATA
  6
Continuous
 62
     7
100
AcDbCircle
 10
-150.0
 20
-250.0000000000013
 30
0.0
 40
24.00000000000002
100
AcDbArc
 50
302.0246991805684
 51
317.9753008194339
  0
ARC
  5
7DE
330
914
100
AcDbEntity
  8
DATA
  6
Continuous
 62
     7
100
AcDbCircle
 10
-150.0
 20
-250.0000000000013
 30
0.0
 40
24.00000000000006
100
AcDbArc
 50
342.0246991805683
 51
357.9753008194355
  0
ARC
  5
7DF
330
914
100
AcDbEntity
  8
DATA
  6
Continuous
 62
     7
100
AcDbCircle
 10
-150.0
 20
-250.0000000000013
 30
0.0
 40
23.99999999999993
100
AcDbArc
 50
22.02469918056708
 51
37.97530081943625
  0
ARC
  5
7E0
330
914
100
AcDbEntity
  8
DATA
  6
Continuous
 62
     7
100
AcDbCircle
 10
-150.0
 20
-250.0000000000013
 30
0.0
 40
24.0000000000001
100
AcDbArc
 50
62.02469918056497
 51
77.97530081943643
  0
ARC
  5
7E1
330
914
100
AcDbEntity
  8
DATA
  6
Continuous
 62
     7
100
AcDbCircle
 10
-150.0
 20
-250.0000000000013
 30
0.0
 40
24.00000000000007
100
AcDbArc
 50
102.0246991805635
 51
117.9753008194351
  0
ARC
  5
7E2
330
914
100
AcDbEntity
  8
DATA
  6
Continuous
 62
     7
100
AcDbCircle
 10
-150.0
 20
-250.0000000000013
 30
0.0
 40
24.00000000000019
100
AcDbArc
 50
142.0246991805637
 51
157.9753008194335
  0
CIRCLE
  5
7E3
330
914
100
AcDbEntity
  8
DATA
  6
Continuous
 62
     7
100
AcDbCircle
 10
-150.0
 20
-250.0000000000013
 30
0.0
 40
12.84999999999991
  0
CIRCLE
  5
7E4
330
914
100
AcDbEntity
  8
DATA
  6
Continuous
 62
     7
100
AcDbCircle
 10
-150.0
 20
-250.0000000000013
 30
0.0
 40
14.0
  0
LINE
  5
7E5
330
914
100
AcDbEntity
  8
DATA
  6
Continuous
 62
     7
100
AcDbLine
 10
-146.0
 20
-226.9000000000007
 30
0.0
 11
-154.0
 21
-226.9000000000007
 31
0.0
  0
LINE
  5
7E6
330
914
100
AcDbEntity
  8
DATA
  6
Continuous
 62
     7
100
AcDbLine
 10
-131.99481317258
 20
-265.0141016151374
 30
0.0
 11
-127.99481317258
 21
-258.085898384862
 31
0.0
  0
LINE
  5
7E7
330
914
100
AcDbEntity
  8
DATA
  6
Continuous
 62
     7
100
AcDbLine
 10
-172.00518682742
 20
-258.085898384862
 30
0.0
 11
-168.00518682742
 21
-265.0141016151374
 31
0.0
  0
LINE
  5
7E8
330
914
100
AcDbEntity
  8
DATA
  6
Continuous
 62
     7
100
AcDbLine
 10
-143.0
 20
-239.2239849666042
 30
0.0
 11
-143.0
 21
-242.1737620787508
 31
0.0
  0
LINE
  5
7E9
330
914
100
AcDbEntity
  8
DATA
  6
Continuous
 62
     7
100
AcDbLine
 10
-143.0
 20
-257.8262379212494
 30
0.0
 11
-143.0
 21
-260.7760150333983
 31
0.0
  0
LINE
  5
7EA
330
914
100
AcDbEntity
  8
DATA
  6
Continuous
 62
     7
100
AcDbLine
 10
-157.0
 20
-239.2239849666042
 30
0.0
 11
-157.0
 21
-242.1737620787508
 31
0.0
  0
LINE
  5
7EB
330
914
100
AcDbEntity
  8
DATA
  6
Continuous
 62
     7
100
AcDbLine
 10
-157.0
 20
-257.8262379212494
 30
0.0
 11
-157.0
 21
-260.7760150333983
 31
0.0
  0
CIRCLE
  5
7EC
330
914
100
AcDbEntity
  8
DATA
  6
Continuous
 62
     7
100
AcDbCircle
 10
-150.0
 20
-250.0000000000001
 30
0.0
 40
10.5
  0
LINE
  5
7ED
330
914
100
AcDbEntity
  8
DATA
  6
Continuous
 62
     7
100
AcDbLine
 10
-140.5
 20
-241.347110309268
 30
0.0
 11
-140.5
 21
-245.5278640450004
 31
0.0
  0
LINE
  5
7EE
330
914
100
AcDbEntity
  8
DATA
  6
Continuous
 62
     7
100
AcDbLine
 10
-140.5
 20
-254.4721359549997
 30
0.0
 11
-140.5
 21
-258.6528896907346
 31
0.0
  0
LINE
  5
7EF
330
914
100
AcDbEntity
  8
DATA
  6
Continuous
 62
     7
100
AcDbLine
 10
-159.5
 20
-241.347110309268
 30
0.0
 11
-159.5
 21
-245.5278640450004
 31
0.0
  0
LINE
  5
7F0
330
914
100
AcDbEntity
  8
DATA
  6
Continuous
 62
     7
100
AcDbLine
 10
-159.5
 20
-254.4721359549997
 30
0.0
 11
-159.5
 21
-258.6528896907346
 31
0.0
  0
CIRCLE
  5
7F1
330
914
100
AcDbEntity
  8
DATA
  6
Continuous
 62
     7
100
AcDbCircle
 10
-150.0
 20
-250.0000000000013
 30
0.0
 40
3.049999999999954
  0
CIRCLE
  5
7F2
330
914
100
AcDbEntity
  8
DATA
  6
Continuous
 62
     7
100
AcDbCircle
 10
-150.0
 20
-250.0000000000001
 30
0.0
 40
7.5
  0
CIRCLE
  5
7F3
330
914
100
AcDbEntity
  8
DATA
  6
Continuous
 62
     7
100
AcDbCircle
 10
-150.0
 20
-250.0000000000013
 30
0.0
 40
5.049999999999954
  0
LINE
  5
7F4
330
914
100
AcDbEntity
  8
DATA
  6
Continuous
 62
     7
100
AcDbLine
 10
-93.75
 20
-246.9500000000013
 30
0.0
 11
-69.65000000000009
 21
-246.9500000000013
 31
0.0
  0
LINE
  5
7F5
330
914
100
AcDbEntity
  8
DATA
  6
Continuous
 62
     7
100
AcDbLine
 10
-63.75
 20
-246.9500000000013
 30
0.0
 11
-31.43664359205355
 21
-246.9500000000013
 31
0.0
  0
LINE
  5
7F6
330
914
100
AcDbEntity
  8
DATA
  6
Continuous
 62
     7
100
AcDbLine
 10
-93.75
 20
-253.0500000000013
 30
0.0
 11
-69.65000000000009
 21
-253.0500000000013
 31
0.0
  0
LINE
  5
7F7
330
914
100
AcDbEntity
  8
DATA
  6
Continuous
 62
     7
100
AcDbLine
 10
-63.75
 20
-253.0500000000013
 30
0.0
 11
-31.43664359205309
 21
-253.0500000000013
 31
0.0
  0
ARC
  5
7F8
330
914
100
AcDbEntity
  8
DATA
  6
Continuous
 62
     7
100
AcDbCircle
 10
-16.75
 20
-250.0000000000001
 30
0.0
 40
14.99999999999998
100
AcDbArc
 50
143.1301023541561
 51
216.869897645844
  0
LINE
  5
7F9
330
914
100
AcDbEntity
  8
DATA
  6
Continuous
 62
     7
100
AcDbLine
 10
-93.75
 20
-246.9500000000013
 30
0.0
 11
-93.75
 21
-253.0500000000013
 31
0.0
  0
LINE
  5
7FA
330
914
100
AcDbEntity
  8
DATA
  6
Continuous
 62
     7
100
AcDbLine
 10
-63.75
 20
-246.9500000000013
 30
0.0
 11
-63.75
 21
-253.0500000000013
 31
0.0
  0
LINE
  5
7FB
330
914
100
AcDbEntity
  8
DATA
  6
Continuous
 62
     7
100
AcDbLine
 10
-69.75
 20
-253.0500000000013
 30
0.0
 11
-70.75
 21
-246.9500000000013
 31
0.0
  0
LINE
  5
7FC
330
914
100
AcDbEntity
  8
DATA
  6
Continuous
 62
     7
100
AcDbLine
 10
-70.75
 20
-253.0500000000013
 30
0.0
 11
-71.75
 21
-246.9500000000013
 31
0.0
  0
LINE
  5
7FD
330
914
100
AcDbEntity
  8
DATA
  6
Continuous
 62
     7
100
AcDbLine
 10
-71.75
 20
-253.0500000000013
 30
0.0
 11
-72.75
 21
-246.9500000000013
 31
0.0
  0
LINE
  5
7FE
330
914
100
AcDbEntity
  8
DATA
  6
Continuous
 62
     7
100
AcDbLine
 10
-72.75
 20
-253.0500000000013
 30
0.0
 11
-73.75
 21
-246.9500000000013
 31
0.0
  0
LINE
  5
7FF
330
914
100
AcDbEntity
  8
DATA
  6
Continuous
 62
     7
100
AcDbLine
 10
-73.75
 20
-253.0500000000013
 30
0.0
 11
-74.75
 21
-246.9500000000013
 31
0.0
  0
LINE
  5
800
330
914
100
AcDbEntity
  8
DATA
  6
Continuous
 62
     7
100
AcDbLine
 10
-74.75
 20
-253.0500000000013
 30
0.0
 11
-75.75
 21
-246.9500000000013
 31
0.0
  0
LINE
  5
801
330
914
100
AcDbEntity
  8
DATA
  6
Continuous
 62
     7
100
AcDbLine
 10
-75.75
 20
-253.0500000000013
 30
0.0
 11
-76.75
 21
-246.9500000000013
 31
0.0
  0
LINE
  5
802
330
914
100
AcDbEntity
  8
DATA
  6
Continuous
 62
     7
100
AcDbLine
 10
-76.75
 20
-253.0500000000013
 30
0.0
 11
-77.75
 21
-246.9500000000013
 31
0.0
  0
LINE
  5
803
330
914
100
AcDbEntity
  8
DATA
  6
Continuous
 62
     7
100
AcDbLine
 10
-77.75
 20
-253.0500000000013
 30
0.0
 11
-78.75
 21
-246.9500000000013
 31
0.0
  0
LINE
  5
804
330
914
100
AcDbEntity
  8
DATA
  6
Continuous
 62
     7
100
AcDbLine
 10
-78.75
 20
-253.0500000000013
 30
0.0
 11
-79.75
 21
-246.9500000000013
 31
0.0
  0
LINE
  5
805
330
914
100
AcDbEntity
  8
DATA
  6
Continuous
 62
     7
100
AcDbLine
 10
-79.75
 20
-253.0500000000013
 30
0.0
 11
-80.75000000000001
 21
-246.9500000000013
 31
0.0
  0
LINE
  5
806
330
914
100
AcDbEntity
  8
DATA
  6
Continuous
 62
     7
100
AcDbLine
 10
-80.75000000000001
 20
-253.0500000000013
 30
0.0
 11
-81.75
 21
-246.9500000000013
 31
0.0
  0
LINE
  5
807
330
914
100
AcDbEntity
  8
DATA
  6
Continuous
 62
     7
100
AcDbLine
 10
-81.75
 20
-253.0500000000013
 30
0.0
 11
-82.75
 21
-246.9500000000013
 31
0.0
  0
LINE
  5
808
330
914
100
AcDbEntity
  8
DATA
  6
Continuous
 62
     7
100
AcDbLine
 10
-82.75
 20
-253.0500000000013
 30
0.0
 11
-83.75
 21
-246.9500000000013
 31
0.0
  0
LINE
  5
809
330
914
100
AcDbEntity
  8
DATA
  6
Continuous
 62
     7
100
AcDbLine
 10
-83.75
 20
-253.0500000000013
 30
0.0
 11
-84.74999999999999
 21
-246.9500000000013
 31
0.0
  0
LINE
  5
80A
330
914
100
AcDbEntity
  8
DATA
  6
Continuous
 62
     7
100
AcDbLine
 10
-84.74999999999999
 20
-253.0500000000013
 30
0.0
 11
-85.75000000000001
 21
-246.9500000000013
 31
0.0
  0
LINE
  5
80B
330
914
100
AcDbEntity
  8
DATA
  6
Continuous
 62
     7
100
AcDbLine
 10
-85.75000000000001
 20
-253.0500000000013
 30
0.0
 11
-86.75
 21
-246.9500000000013
 31
0.0
  0
LINE
  5
80C
330
914
100
AcDbEntity
  8
DATA
  6
Continuous
 62
     7
100
AcDbLine
 10
-86.75
 20
-253.0500000000013
 30
0.0
 11
-87.75
 21
-246.9500000000013
 31
0.0
  0
LINE
  5
80D
330
914
100
AcDbEntity
  8
DATA
  6
Continuous
 62
     7
100
AcDbLine
 10
-87.75
 20
-253.0500000000013
 30
0.0
 11
-88.75
 21
-246.9500000000013
 31
0.0
  0
LINE
  5
80E
330
914
100
AcDbEntity
  8
DATA
  6
Continuous
 62
     7
100
AcDbLine
 10
-88.75
 20
-253.0500000000013
 30
0.0
 11
-89.74999999999999
 21
-246.9500000000013
 31
0.0
  0
LINE
  5
80F
330
914
100
AcDbEntity
  8
DATA
  6
Continuous
 62
     7
100
AcDbLine
 10
-89.74999999999999
 20
-253.0500000000013
 30
0.0
 11
-90.75000000000001
 21
-246.9500000000013
 31
0.0
  0
LINE
  5
810
330
914
100
AcDbEntity
  8
DATA
  6
Continuous
 62
     7
100
AcDbLine
 10
-90.75000000000001
 20
-253.0500000000013
 30
0.0
 11
-91.75
 21
-246.9500000000013
 31
0.0
  0
LINE
  5
811
330
914
100
AcDbEntity
  8
DATA
  6
Continuous
 62
     7
100
AcDbLine
 10
-91.75
 20
-253.0500000000013
 30
0.0
 11
-92.75
 21
-246.9500000000013
 31
0.0
  0
LINE
  5
812
330
914
100
AcDbEntity
  8
DATA
  6
Continuous
 62
     7
100
AcDbLine
 10
-92.75
 20
-253.0500000000013
 30
0.0
 11
-93.75
 21
-246.9500000000013
 31
0.0
  0
LINE
  5
813
330
914
100
AcDbEntity
  8
DATA
  6
Continuous
 62
     7
100
AcDbLine
 10
-68.15000000000009
 20
-242.5000000000013
 30
0.0
 11
-69.65000000000009
 21
-242.5000000000013
 31
0.0
  0
LINE
  5
814
330
914
100
AcDbEntity
  8
DATA
  6
Continuous
 62
     7
100
AcDbLine
 10
-69.65000000000009
 20
-242.5000000000013
 30
0.0
 11
-69.65000000000009
 21
-257.5000000000013
 31
0.0
  0
LINE
  5
815
330
914
100
AcDbEntity
  8
DATA
  6
Continuous
 62
     7
100
AcDbLine
 10
-67.65000000000009
 20
-243.7000000000013
 30
0.0
 11
-67.65000000000009
 21
-256.3000000000075
 31
0.0
  0
LINE
  5
816
330
914
100
AcDbEntity
  8
DATA
  6
Continuous
 62
     7
100
AcDbLine
 10
-63.75
 20
-243.7000000000013
 30
0.0
 11
-63.75
 21
-256.3000000000013
 31
0.0
  0
LINE
  5
817
330
914
100
AcDbEntity
  8
DATA
  6
Continuous
 62
     7
100
AcDbLine
 10
-63.75
 20
-243.7000000000013
 30
0.0
 11
-67.65000000000009
 21
-243.7000000000013
 31
0.0
  0
LINE
  5
818
330
914
100
AcDbEntity
  8
DATA
  6
Continuous
 62
     7
100
AcDbLine
 10
-63.75
 20
-246.8500000000013
 30
0.0
 11
-67.65000000000009
 21
-246.8500000000013
 31
0.0
  0
LINE
  5
819
330
914
100
AcDbEntity
  8
DATA
  6
Continuous
 62
     7
100
AcDbLine
 10
-63.75
 20
-253.1500000000013
 30
0.0
 11
-67.65000000000009
 21
-253.1500000000013
 31
0.0
  0
LINE
  5
81A
330
914
100
AcDbEntity
  8
DATA
  6
Continuous
 62
     7
100
AcDbLine
 10
-63.75
 20
-256.3000000000013
 30
0.0
 11
-67.65000000000009
 21
-256.3000000000013
 31
0.0
  0
LINE
  5
81B
330
914
100
AcDbEntity
  8
DATA
  6
Continuous
 62
     7
100
AcDbLine
 10
-67.65000000000009
 20
-243.7000000000013
 30
0.0
 11
-68.15000000000009
 21
-242.5000000000013
 31
0.0
  0
LINE
  5
81C
330
914
100
AcDbEntity
  8
DATA
  6
Continuous
 62
     7
100
AcDbLine
 10
-68.14999999999759
 20
-257.5000000000029
 30
0.0
 11
-69.64999999999759
 21
-257.5000000000033
 31
0.0
  0
LINE
  5
81D
330
914
100
AcDbEntity
  8
DATA
  6
Continuous
 62
     7
100
AcDbLine
 10
-67.64999999999782
 20
-256.3000000000026
 30
0.0
 11
-68.14999999999759
 21
-257.5000000000029
 31
0.0
  0
LINE
  5
81E
330
914
100
AcDbEntity
  8
DATA
  6
Continuous
 62
     7
100
AcDbLine
 10
-176.25
 20
-107.2500000000001
 30
0.0
 11
-123.75
 21
-107.2500000000001
 31
0.0
  0
LINE
  5
81F
330
914
100
AcDbEntity
  8
DATA
  6
Continuous
 62
     7
100
AcDbLine
 10
-176.25
 20
-112.2500000000001
 30
0.0
 11
-123.75
 21
-112.2500000000001
 31
0.0
  0
LINE
  5
820
330
914
100
AcDbEntity
  8
DATA
  6
Continuous
 62
     7
100
AcDbLine
 10
-165.5
 20
-121.2500000000001
 30
0.0
 11
-169.5
 21
-112.2500000000001
 31
0.0
  0
LINE
  5
821
330
914
100
AcDbEntity
  8
DATA
  6
Continuous
 62
     7
100
AcDbLine
 10
-134.5
 20
-121.2500000000001
 30
0.0
 11
-130.5
 21
-112.2500000000001
 31
0.0
  0
LINE
  5
822
330
914
100
AcDbEntity
  8
DATA
  6
Continuous
 62
     7
100
AcDbLine
 10
-165.5
 20
-126.2500000000001
 30
0.0
 11
-134.5
 21
-126.2500000000001
 31
0.0
  0
LINE
  5
823
330
914
100
AcDbEntity
  8
DATA
  6
Continuous
 62
     7
100
AcDbLine
 10
-169.5
 20
-112.2500000000001
 30
0.0
 11
-130.5
 21
-112.2500000000001
 31
0.0
  0
LINE
  5
824
330
914
100
AcDbEntity
  8
DATA
  6
Continuous
 62
     7
100
AcDbLine
 10
-165.5
 20
-121.2500000000001
 30
0.0
 11
-134.5
 21
-121.2500000000001
 31
0.0
  0
LINE
  5
825
330
914
100
AcDbEntity
  8
DATA
  6
Continuous
 62
     7
100
AcDbLine
 10
-165.5
 20
-121.2500000000001
 30
0.0
 11
-165.5
 21
-126.2500000000001
 31
0.0
  0
LINE
  5
826
330
914
100
AcDbEntity
  8
DATA
  6
Continuous
 62
     7
100
AcDbLine
 10
-134.5
 20
-121.2500000000001
 30
0.0
 11
-134.5
 21
-126.2500000000001
 31
0.0
  0
LINE
  5
827
330
914
100
AcDbEntity
  8
DATA
  6
Continuous
 62
     7
100
AcDbLine
 10
-173.7916666666665
 20
-138.7500000000001
 30
0.0
 11
-174.0
 21
-126.2500000000001
 31
0.0
  0
LINE
  5
828
330
914
100
AcDbEntity
  8
DATA
  6
Continuous
 62
     7
100
AcDbLine
 10
-126.2083333333332
 20
-138.7500000000001
 30
0.0
 11
-126.0
 21
-126.2500000000001
 31
0.0
  0
LINE
  5
829
330
914
100
AcDbEntity
  8
DATA
  6
Continuous
 62
     7
100
AcDbLine
 10
-174.0
 20
-126.2500000000001
 30
0.0
 11
-126.0
 21
-126.2500000000001
 31
0.0
  0
LINE
  5
82A
330
914
100
AcDbEntity
  8
DATA
  6
Continuous
 62
     7
100
AcDbLine
 10
-171.5
 20
-141.2500000000001
 30
0.0
 11
-128.5
 21
-141.2500000000001
 31
0.0
  0
LINE
  5
82B
330
914
100
AcDbEntity
  8
DATA
  6
Continuous
 62
     7
100
AcDbLine
 10
-126.2321286779975
 20
-138.7500000000001
 30
0.0
 11
-126.2083333333332
 21
-138.7500000000001
 31
0.0
  0
LINE
  5
82C
330
914
100
AcDbEntity
  8
DATA
  6
Continuous
 62
     7
100
AcDbLine
 10
-173.7916666666665
 20
-138.7500000000001
 30
0.0
 11
-171.5
 21
-141.2500000000001
 31
0.0
  0
LINE
  5
82D
330
914
100
AcDbEntity
  8
DATA
  6
Continuous
 62
     7
100
AcDbLine
 10
-126.2083333333332
 20
-138.7500000000001
 30
0.0
 11
-128.5
 21
-141.2500000000001
 31
0.0
  0
LINE
  5
82E
330
914
100
AcDbEntity
  8
DATA
  6
Continuous
 62
     7
100
AcDbLine
 10
-126.2321286779975
 20
-138.7759585578154
 30
0.0
 11
-126.2321286779975
 21
-138.7500000000001
 31
0.0
  0
ARC
  5
82F
330
914
100
AcDbEntity
  8
DATA
  6
Continuous
 62
     7
100
AcDbCircle
 10
-127.9422293946261
 20
-138.6773313480455
 30
0.0
 40
1.711644003287672
100
AcDbArc
 50
356.6459138034951
 51
357.5667493581737
  0
LINE
  5
830
330
914
100
AcDbEntity
  8
DATA
  6
Continuous
 62
     7
100
AcDbLine
 10
-153.0499999999988
 20
-206.2500000000001
 30
0.0
 11
-153.0499999999988
 21
-182.15
 31
0.0
  0
LINE
  5
831
330
914
100
AcDbEntity
  8
DATA
  6
Continuous
 62
     7
100
AcDbLine
 10
-153.0499999999988
 20
-176.2500000000001
 30
0.0
 11
-153.0499999999988
 21
-143.9366435920536
 31
0.0
  0
LINE
  5
832
330
914
100
AcDbEntity
  8
DATA
  6
Continuous
 62
     7
100
AcDbLine
 10
-146.9499999999989
 20
-206.2500000000001
 30
0.0
 11
-146.9499999999989
 21
-182.15
 31
0.0
  0
LINE
  5
833
330
914
100
AcDbEntity
  8
DATA
  6
Continuous
 62
     7
100
AcDbLine
 10
-146.9499999999989
 20
-176.2500000000001
 30
0.0
 11
-146.9499999999989
 21
-143.9366435920531
 31
0.0
  0
ARC
  5
834
330
914
100
AcDbEntity
  8
DATA
  6
Continuous
 62
     7
100
AcDbCircle
 10
-150.0
 20
-129.2500000000001
 30
0.0
 40
15.0
100
AcDbArc
 50
233.130102354156
 51
306.8698976458441
  0
LINE
  5
835
330
914
100
AcDbEntity
  8
DATA
  6
Continuous
 62
     7
100
AcDbLine
 10
-153.0499999999988
 20
-206.2500000000001
 30
0.0
 11
-146.9499999999989
 21
-206.2500000000001
 31
0.0
  0
LINE
  5
836
330
914
100
AcDbEntity
  8
DATA
  6
Continuous
 62
     7
100
AcDbLine
 10
-153.0499999999988
 20
-176.2500000000001
 30
0.0
 11
-146.9499999999989
 21
-176.2500000000001
 31
0.0
  0
LINE
  5
837
330
914
100
AcDbEntity
  8
DATA
  6
Continuous
 62
     7
100
AcDbLine
 10
-146.9499999999989
 20
-182.2500000000001
 30
0.0
 11
-153.0499999999988
 21
-183.2500000000001
 31
0.0
  0
LINE
  5
838
330
914
100
AcDbEntity
  8
DATA
  6
Continuous
 62
     7
100
AcDbLine
 10
-146.9499999999989
 20
-183.2500000000001
 30
0.0
 11
-153.0499999999988
 21
-184.2500000000001
 31
0.0
  0
LINE
  5
839
330
914
100
AcDbEntity
  8
DATA
  6
Continuous
 62
     7
100
AcDbLine
 10
-146.9499999999989
 20
-184.2500000000001
 30
0.0
 11
-153.0499999999988
 21
-185.2500000000001
 31
0.0
  0
LINE
  5
83A
330
914
100
AcDbEntity
  8
DATA
  6
Continuous
 62
     7
100
AcDbLine
 10
-146.9499999999989
 20
-185.2500000000001
 30
0.0
 11
-153.0499999999988
 21
-186.2500000000001
 31
0.0
  0
LINE
  5
83B
330
914
100
AcDbEntity
  8
DATA
  6
Continuous
 62
     7
100
AcDbLine
 10
-146.9499999999989
 20
-186.2500000000001
 30
0.0
 11
-153.0499999999988
 21
-187.2500000000001
 31
0.0
  0
LINE
  5
83C
330
914
100
AcDbEntity
  8
DATA
  6
Continuous
 62
     7
100
AcDbLine
 10
-146.9499999999989
 20
-187.2500000000001
 30
0.0
 11
-153.0499999999988
 21
-188.2500000000001
 31
0.0
  0
LINE
  5
83D
330
914
100
AcDbEntity
  8
DATA
  6
Continuous
 62
     7
100
AcDbLine
 10
-146.9499999999989
 20
-188.2500000000001
 30
0.0
 11
-153.0499999999988
 21
-189.2500000000001
 31
0.0
  0
LINE
  5
83E
330
914
100
AcDbEntity
  8
DATA
  6
Continuous
 62
     7
100
AcDbLine
 10
-146.9499999999989
 20
-189.2500000000001
 30
0.0
 11
-153.0499999999988
 21
-190.2500000000001
 31
0.0
  0
LINE
  5
83F
330
914
100
AcDbEntity
  8
DATA
  6
Continuous
 62
     7
100
AcDbLine
 10
-146.9499999999989
 20
-190.2500000000001
 30
0.0
 11
-153.0499999999988
 21
-191.2500000000001
 31
0.0
  0
LINE
  5
840
330
914
100
AcDbEntity
  8
DATA
  6
Continuous
 62
     7
100
AcDbLine
 10
-146.9499999999989
 20
-191.2500000000001
 30
0.0
 11
-153.0499999999988
 21
-192.2500000000001
 31
0.0
  0
LINE
  5
841
330
914
100
AcDbEntity
  8
DATA
  6
Continuous
 62
     7
100
AcDbLine
 10
-146.9499999999989
 20
-192.2500000000001
 30
0.0
 11
-153.0499999999988
 21
-193.2500000000001
 31
0.0
  0
LINE
  5
842
330
914
100
AcDbEntity
  8
DATA
  6
Continuous
 62
     7
100
AcDbLine
 10
-146.9499999999989
 20
-193.2500000000001
 30
0.0
 11
-153.0499999999988
 21
-194.2500000000001
 31
0.0
  0
LINE
  5
843
330
914
100
AcDbEntity
  8
DATA
  6
Continuous
 62
     7
100
AcDbLine
 10
-146.9499999999989
 20
-194.2500000000001
 30
0.0
 11
-153.0499999999988
 21
-195.25
 31
0.0
  0
LINE
  5
844
330
914
100
AcDbEntity
  8
DATA
  6
Continuous
 62
     7
100
AcDbLine
 10
-146.9499999999989
 20
-195.25
 30
0.0
 11
-153.0499999999988
 21
-196.2500000000001
 31
0.0
  0
LINE
  5
845
330
914
100
AcDbEntity
  8
DATA
  6
Continuous
 62
     7
100
AcDbLine
 10
-146.9499999999989
 20
-196.2500000000001
 30
0.0
 11
-153.0499999999988
 21
-197.2500000000001
 31
0.0
  0
LINE
  5
846
330
914
100
AcDbEntity
  8
DATA
  6
Continuous
 62
     7
100
AcDbLine
 10
-146.9499999999989
 20
-197.2500000000001
 30
0.0
 11
-153.0499999999988
 21
-198.25
 31
0.0
  0
LINE
  5
847
330
914
100
AcDbEntity
  8
DATA
  6
Continuous
 62
     7
100
AcDbLine
 10
-146.9499999999989
 20
-198.25
 30
0.0
 11
-153.0499999999988
 21
-199.2500000000001
 31
0.0
  0
LINE
  5
848
330
914
100
AcDbEntity
  8
DATA
  6
Continuous
 62
     7
100
AcDbLine
 10
-146.9499999999989
 20
-199.2500000000001
 30
0.0
 11
-153.0499999999988
 21
-200.2500000000001
 31
0.0
  0
LINE
  5
849
330
914
100
AcDbEntity
  8
DATA
  6
Continuous
 62
     7
100
AcDbLine
 10
-146.9499999999989
 20
-200.2500000000001
 30
0.0
 11
-153.0499999999988
 21
-201.2500000000001
 31
0.0
  0
LINE
  5
84A
330
914
100
AcDbEntity
  8
DATA
  6
Continuous
 62
     7
100
AcDbLine
 10
-146.9499999999989
 20
-201.2500000000001
 30
0.0
 11
-153.0499999999988
 21
-202.2500000000001
 31
0.0
  0
LINE
  5
84B
330
914
100
AcDbEntity
  8
DATA
  6
Continuous
 62
     7
100
AcDbLine
 10
-146.9499999999989
 20
-202.2500000000001
 30
0.0
 11
-153.0499999999988
 21
-203.2500000000001
 31
0.0
  0
LINE
  5
84C
330
914
100
AcDbEntity
  8
DATA
  6
Continuous
 62
     7
100
AcDbLine
 10
-146.9499999999989
 20
-203.2500000000001
 30
0.0
 11
-153.0499999999988
 21
-204.2500000000001
 31
0.0
  0
LINE
  5
84D
330
914
100
AcDbEntity
  8
DATA
  6
Continuous
 62
     7
100
AcDbLine
 10
-146.9499999999989
 20
-204.2500000000001
 30
0.0
 11
-153.0499999999988
 21
-205.2500000000001
 31
0.0
  0
LINE
  5
84E
330
914
100
AcDbEntity
  8
DATA
  6
Continuous
 62
     7
100
AcDbLine
 10
-146.9499999999989
 20
-205.2500000000001
 30
0.0
 11
-153.0499999999988
 21
-206.2500000000001
 31
0.0
  0
LINE
  5
84F
330
914
100
AcDbEntity
  8
DATA
  6
Continuous
 62
     7
100
AcDbLine
 10
-157.4999999999988
 20
-180.65
 30
0.0
 11
-157.4999999999988
 21
-182.15
 31
0.0
  0
LINE
  5
850
330
914
100
AcDbEntity
  8
DATA
  6
Continuous
 62
     7
100
AcDbLine
 10
-157.4999999999988
 20
-182.15
 30
0.0
 11
-142.4999999999988
 21
-182.15
 31
0.0
  0
LINE
  5
851
330
914
100
AcDbEntity
  8
DATA
  6
Continuous
 62
     7
100
AcDbLine
 10
-156.2999999999988
 20
-180.15
 30
0.0
 11
-143.6999999999925
 21
-180.15
 31
0.0
  0
LINE
  5
852
330
914
100
AcDbEntity
  8
DATA
  6
Continuous
 62
     7
100
AcDbLine
 10
-156.2999999999988
 20
-176.2500000000001
 30
0.0
 11
-143.6999999999989
 21
-176.2500000000001
 31
0.0
  0
LINE
  5
853
330
914
100
AcDbEntity
  8
DATA
  6
Continuous
 62
     7
100
AcDbLine
 10
-156.2999999999988
 20
-176.2500000000001
 30
0.0
 11
-156.2999999999988
 21
-180.15
 31
0.0
  0
LINE
  5
854
330
914
100
AcDbEntity
  8
DATA
  6
Continuous
 62
     7
100
AcDbLine
 10
-153.1499999999987
 20
-176.2500000000001
 30
0.0
 11
-153.1499999999987
 21
-180.15
 31
0.0
  0
LINE
  5
855
330
914
100
AcDbEntity
  8
DATA
  6
Continuous
 62
     7
100
AcDbLine
 10
-146.8499999999987
 20
-176.2500000000001
 30
0.0
 11
-146.8499999999987
 21
-180.15
 31
0.0
  0
LINE
  5
856
330
914
100
AcDbEntity
  8
DATA
  6
Continuous
 62
     7
100
AcDbLine
 10
-143.6999999999989
 20
-176.2500000000001
 30
0.0
 11
-143.6999999999989
 21
-180.15
 31
0.0
  0
LINE
  5
857
330
914
100
AcDbEntity
  8
DATA
  6
Continuous
 62
     7
100
AcDbLine
 10
-156.2999999999988
 20
-180.15
 30
0.0
 11
-157.4999999999988
 21
-180.65
 31
0.0
  0
LINE
  5
858
330
914
100
AcDbEntity
  8
DATA
  6
Continuous
 62
     7
100
AcDbLine
 10
-142.4999999999972
 20
-180.6499999999976
 30
0.0
 11
-142.4999999999968
 21
-182.1499999999977
 31
0.0
  0
LINE
  5
859
330
914
100
AcDbEntity
  8
DATA
  6
Continuous
 62
     7
100
AcDbLine
 10
-143.6999999999975
 20
-180.1499999999981
 30
0.0
 11
-142.4999999999972
 21
-180.6499999999976
 31
0.0
  0
LINE
  5
85A
330
914
100
AcDbEntity
  8
DATA
  6
Continuous
 62
     7
100
AcDbLine
 10
-127.5833333333335
 20
-140.2500000000001
 30
0.0
 11
-127.7514652259176
 21
-140.2500000000001
 31
0.0
  0
LINE
  5
85B
330
914
100
AcDbEntity
  8
DATA
  6
Continuous
 62
     7
100
AcDbLine
 10
-172.2485347740823
 20
-140.2500000000001
 30
0.0
 11
-172.4166666666665
 21
-140.2500000000001
 31
0.0
  0
LINE
  5
85C
330
914
100
AcDbEntity
  8
DATA
  6
Continuous
 62
     7
100
AcDbLine
 10
-172.2485347740823
 20
-140.433416610092
 30
0.0
 11
-172.2485347740823
 21
-126.2500000000001
 31
0.0
  0
LINE
  5
85D
330
914
100
AcDbEntity
  8
DATA
  6
Continuous
 62
     7
100
AcDbLine
 10
-168.9186259433843
 20
-138.7500000000001
 30
0.0
 11
-168.9186259433843
 21
-126.2500000000001
 31
0.0
  0
LINE
  5
85E
330
914
100
AcDbEntity
  8
DATA
  6
Continuous
 62
     7
100
AcDbLine
 10
-161.2581815121941
 20
-138.7500000000001
 30
0.0
 11
-161.2581815121941
 21
-126.2500000000001
 31
0.0
  0
LINE
  5
85F
330
914
100
AcDbEntity
  8
DATA
  6
Continuous
 62
     7
100
AcDbLine
 10
-155.0
 20
-138.7500000000001
 30
0.0
 11
-155.0
 21
-126.2500000000001
 31
0.0
  0
LINE
  5
860
330
914
100
AcDbEntity
  8
DATA
  6
Continuous
 62
     7
100
AcDbLine
 10
-145.0
 20
-138.7500000000001
 30
0.0
 11
-145.0
 21
-126.2500000000001
 31
0.0
  0
LINE
  5
861
330
914
100
AcDbEntity
  8
DATA
  6
Continuous
 62
     7
100
AcDbLine
 10
-138.7418184878058
 20
-138.7500000000001
 30
0.0
 11
-138.7418184878058
 21
-126.2500000000001
 31
0.0
  0
LINE
  5
862
330
914
100
AcDbEntity
  8
DATA
  6
Continuous
 62
     7
100
AcDbLine
 10
-131.0813740566163
 20
-138.7500000000001
 30
0.0
 11
-131.0813740566163
 21
-126.2500000000001
 31
0.0
  0
LINE
  5
863
330
914
100
AcDbEntity
  8
DATA
  6
Continuous
 62
     7
100
AcDbLine
 10
-127.7514652259176
 20
-140.433416610092
 30
0.0
 11
-127.7514652259176
 21
-126.2500000000001
 31
0.0
  0
ARC
  5
864
330
914
100
AcDbEntity
  8
DATA
  6
Continuous
 62
     7
100
AcDbCircle
 10
-165.0884037277892
 20
-134.6097992597208
 30
0.0
 40
5.640200740279308
100
AcDbArc
 50
227.2271735241908
 51
312.7728264758092
  0
ARC
  5
865
330
914
100
AcDbEntity
  8
DATA
  6
Continuous
 62
     7
100
AcDbCircle
 10
-150.0
 20
-131.1666666666669
 30
0.0
 40
9.083333333333177
100
AcDbArc
 50
236.601511532012
 51
303.3984884679879
  0
ARC
  5
866
330
914
100
AcDbEntity
  8
DATA
  6
Continuous
 62
     7
100
AcDbCircle
 10
-134.9115962722112
 20
-134.6097992597218
 30
0.0
 40
5.640200740278248
100
AcDbArc
 50
227.2271735241872
 51
312.7728264758145
  0
LINE
  5
867
330
914
100
AcDbEntity
  8
DATA
  6
Continuous
 62
     7
100
AcDbLine
 10
-176.25
 20
-112.2500000000001
 30
0.0
 11
-176.25
 21
-107.2500000000001
 31
0.0
  0
LINE
  5
868
330
914
100
AcDbEntity
  8
DATA
  6
Continuous
 62
     7
100
AcDbLine
 10
-123.75
 20
-112.2500000000001
 30
0.0
 11
-123.75
 21
-107.2500000000001
 31
0.0
  0
CIRCLE
  5
869
330
914
100
AcDbEntity
  8
DATA
  6
Continuous
 62
     7
100
AcDbCircle
 10
-150.0
 20
-133.7500000000001
 30
0.0
 40
2.25
  0
CIRCLE
  5
86A
330
914
100
AcDbEntity
  8
DATA
  6
Continuous
 62
     7
100
AcDbCircle
 10
-150.0
 20
-133.7500000000001
 30
0.0
 40
3.0
  0
LWPOLYLINE
  5
86B
330
914
100
AcDbEntity
  8
DATA
  6
Continuous
 62
     7
100
AcDbPolyline
 90
        4
 70
     1
 43
0.0
 10
51.5
 20
-291.5
 10
148.5
 20
-291.5
 10
148.5
 20
-296.0
 10
51.5
 20
-296.0
  0
CIRCLE
  5
872
330
914
100
AcDbEntity
  8
DATA
  6
Continuous
 62
     7
100
AcDbCircle
 10
156.25
 20
-293.75
 30
0.0
 40
2.25
  0
TEXT
  5
873
330
914
100
AcDbEntity
  8
DATA
 62
     7
100
AcDbText
 10
72.46670428240739
 20
-342.9294704861111
 30
0.0
 40
10.85894097222222
  1
壁取付キット固定棒
 41
0.7
 72
     1
 11
112.5
 21
-337.5
 31
0.0
100
AcDbText
 73
     2
  0
LINE
  5
874
330
914
100
AcDbEntity
  8
DATA
  6
Continuous
 62
     7
100
AcDbLine
 10
43.75
 20
-350.0
 30
0.0
 11
181.25
 21
-350.0
 31
0.0
  0
TEXT
  5
875
330
914
100
AcDbEntity
  8
DATA
 62
     7
100
AcDbText
 10
-150.590904224537
 20
-342.9294704861111
 30
0.0
 40
10.85894097222222
  1
壁取付キット
 41
0.7
 72
     1
 11
-125.0
 21
-337.5
 31
0.0
100
AcDbText
 73
     2
  0
LINE
  5
876
330
914
100
AcDbEntity
  8
DATA
  6
Continuous
 62
     7
100
AcDbLine
 10
-168.75
 20
-350.0
 30
0.0
 11
-81.25
 21
-350.0
 31
0.0
  0
TEXT
  5
877
330
914
100
AcDbEntity
  8
DATA
 62
     7
100
AcDbText
 10
-133.0229412615741
 20
-24.98502604166677
 30
0.0
 40
10.85894097222222
  1
電源アダプター壁取付ケース
 41
0.7
 72
     1
 11
-75.0
 21
-19.55555555555566
 31
0.0
100
AcDbText
 73
     2
  0
LINE
  5
878
330
914
100
AcDbEntity
  8
DATA
  6
Continuous
 62
     7
100
AcDbLine
 10
-168.75
 20
-32.05555555555566
 30
0.0
 11
18.75
 21
-32.05555555555566
 31
0.0
  0
LINE
  5
879
330
914
100
AcDbEntity
  8
DATA
  6
Continuous
 62
     7
100
AcDbLine
 10
-2.210000000000036
 20
206.5853636049712
 30
0.0
 11
-2.210000000000036
 21
212.5389065168986
 31
0.0
  0
LINE
  5
87A
330
914
100
AcDbEntity
  8
DATA
  6
Continuous
 62
     7
100
AcDbLine
 10
2.210000000000036
 20
212.5389065168986
 30
0.0
 11
2.210000000000036
 21
206.5853636049712
 31
0.0
  0
ARC
  5
87B
330
914
100
AcDbEntity
  8
DATA
  6
Continuous
 62
     7
100
AcDbCircle
 10
0.0
 20
201.5489065168986
 30
0.0
 40
5.499999999999934
100
AcDbArc
 50
113.6918911106702
 51
66.30810888932976
  0
ARC
  5
87C
330
914
100
AcDbEntity
  8
DATA
  6
Continuous
 62
     7
100
AcDbCircle
 10
0.0
 20
212.5389065168986
 30
0.0
 40
2.210000000000036
100
AcDbArc
 50
0.0
 51
180.0
  0
LINE
  5
87D
330
914
100
AcDbEntity
  8
DATA
  6
Continuous
 62
     7
100
AcDbLine
 10
-2.210000000000036
 20
40.58536360497124
 30
0.0
 11
-2.210000000000036
 21
46.53890651689859
 31
0.0
  0
LINE
  5
87E
330
914
100
AcDbEntity
  8
DATA
  6
Continuous
 62
     7
100
AcDbLine
 10
2.210000000000036
 20
46.53890651689859
 30
0.0
 11
2.210000000000036
 21
40.58536360497124
 31
0.0
  0
ARC
  5
87F
330
914
100
AcDbEntity
  8
DATA
  6
Continuous
 62
     7
100
AcDbCircle
 10
0.0
 20
35.54890651689861
 30
0.0
 40
5.499999999999959
100
AcDbArc
 50
113.6918911106701
 51
66.3081088893299
  0
ARC
  5
880
330
914
100
AcDbEntity
  8
DATA
  6
Continuous
 62
     7
100
AcDbCircle
 10
0.0
 20
46.53890651689859
 30
0.0
 40
2.210000000000036
100
AcDbArc
 50
0.0
 51
180.0
  0
LINE
  5
881
330
914
100
AcDbEntity
  8
DATA
  6
Continuous
 62
     7
100
AcDbLine
 10
-152.21
 20
206.5853636049712
 30
0.0
 11
-152.21
 21
212.5389065168986
 31
0.0
  0
LINE
  5
882
330
914
100
AcDbEntity
  8
DATA
  6
Continuous
 62
     7
100
AcDbLine
 10
-147.7899999999999
 20
212.5389065168986
 30
0.0
 11
-147.7899999999999
 21
206.5853636049712
 31
0.0
  0
ARC
  5
883
330
914
100
AcDbEntity
  8
DATA
  6
Continuous
 62
     7
100
AcDbCircle
 10
-150.0
 20
201.5489065168986
 30
0.0
 40
5.499999999999934
100
AcDbArc
 50
113.6918911106702
 51
66.30810888932976
  0
ARC
  5
884
330
914
100
AcDbEntity
  8
DATA
  6
Continuous
 62
     7
100
AcDbCircle
 10
-150.0
 20
212.5389065168986
 30
0.0
 40
2.210000000000036
100
AcDbArc
 50
0.0
 51
180.0
  0
LINE
  5
885
330
914
100
AcDbEntity
  8
DATA
  6
Continuous
 62
     7
100
AcDbLine
 10
-152.21
 20
40.58536360497124
 30
0.0
 11
-152.21
 21
46.53890651689859
 31
0.0
  0
LINE
  5
886
330
914
100
AcDbEntity
  8
DATA
  6
Continuous
 62
     7
100
AcDbLine
 10
-147.7899999999999
 20
46.53890651689859
 30
0.0
 11
-147.7899999999999
 21
40.58536360497124
 31
0.0
  0
ARC
  5
887
330
914
100
AcDbEntity
  8
DATA
  6
Continuous
 62
     7
100
AcDbCircle
 10
-150.0
 20
35.54890651689861
 30
0.0
 40
5.499999999999959
100
AcDbArc
 50
113.6918911106701
 51
66.3081088893299
  0
ARC
  5
888
330
914
100
AcDbEntity
  8
DATA
  6
Continuous
 62
     7
100
AcDbCircle
 10
-150.0
 20
46.53890651689859
 30
0.0
 40
2.210000000000036
100
AcDbArc
 50
0.0
 51
180.0
  0
LINE
  5
889
330
914
100
AcDbEntity
  8
DATA
  6
STYLE_06
 62
     7
100
AcDbLine
 10
-150.0
 20
224.9999999999999
 30
0.0
 11
-150.0
 21
18.7499999999999
 31
0.0
  0
LINE
  5
88A
330
914
100
AcDbEntity
  8
DATA
  6
STYLE_06
 62
     7
100
AcDbLine
 10
0.0
 20
224.9999999999999
 30
0.0
 11
0.0
 21
18.7499999999999
 31
0.0
  0
LINE
  5
88B
330
914
100
AcDbEntity
  8
DATA
  6
Continuous
 62
     7
100
AcDbLine
 10
-2.210000000000036
 20
323.7864570880725
 30
0.0
 11
-2.210000000000036
 21
329.7399999999999
 31
0.0
  0
LINE
  5
88C
330
914
100
AcDbEntity
  8
DATA
  6
Continuous
 62
     7
100
AcDbLine
 10
2.210000000000036
 20
329.7399999999999
 30
0.0
 11
2.210000000000036
 21
323.7864570880725
 31
0.0
  0
ARC
  5
88D
330
914
100
AcDbEntity
  8
DATA
  6
Continuous
 62
     7
100
AcDbCircle
 10
0.0
 20
318.7499999999999
 30
0.0
 40
5.499999999999985
100
AcDbArc
 50
113.69189111067
 51
66.30810888933
  0
ARC
  5
88E
330
914
100
AcDbEntity
  8
DATA
  6
Continuous
 62
     7
100
AcDbCircle
 10
0.0
 20
329.7399999999999
 30
0.0
 40
2.210000000000036
100
AcDbArc
 50
0.0
 51
180.0
  0
LINE
  5
88F
330
914
100
AcDbEntity
  8
DATA
  6
Continuous
 62
     7
100
AcDbLine
 10
-50.0
 20
277.4999999999999
 30
0.0
 11
-50.0
 21
353.7499999999998
 31
0.0
  0
ARC
  5
890
330
914
100
AcDbEntity
  8
DATA
  6
Continuous
 62
     7
100
AcDbCircle
 10
-35.0
 20
277.4999999999999
 30
0.0
 40
15.0
100
AcDbArc
 50
180.0
 51
270.0
  0
LINE
  5
891
330
914
100
AcDbEntity
  8
DATA
  6
Continuous
 62
     7
100
AcDbLine
 10
72.5
 20
262.4999999999999
 30
0.0
 11
-35.0
 21
262.4999999999999
 31
0.0
  0
ARC
  5
892
330
914
100
AcDbEntity
  8
DATA
  6
Continuous
 62
     7
100
AcDbCircle
 10
72.5
 20
277.4999999999999
 30
0.0
 40
15.0
100
AcDbArc
 50
270.0
 51
0.0
  0
LINE
  5
893
330
914
100
AcDbEntity
  8
DATA
  6
Continuous
 62
     7
100
AcDbLine
 10
87.5
 20
353.7499999999998
 30
0.0
 11
87.5
 21
277.4999999999999
 31
0.0
  0
ARC
  5
894
330
914
100
AcDbEntity
  8
DATA
  6
Continuous
 62
     7
100
AcDbCircle
 10
72.5
 20
353.7499999999998
 30
0.0
 40
15.0
100
AcDbArc
 50
0.0
 51
90.0
  0
LINE
  5
895
330
914
100
AcDbEntity
  8
DATA
  6
Continuous
 62
     7
100
AcDbLine
 10
-35.0
 20
368.75
 30
0.0
 11
72.5
 21
368.75
 31
0.0
  0
ARC
  5
896
330
914
100
AcDbEntity
  8
DATA
  6
Continuous
 62
     7
100
AcDbCircle
 10
-35.0
 20
353.7499999999998
 30
0.0
 40
15.0
100
AcDbArc
 50
90.0
 51
180.0
  0
TEXT
  5
897
330
914
100
AcDbEntity
  8
DATA
 62
     7
100
AcDbText
 10
-16.21578993055556
 20
269.5705295138888
 30
0.0
 40
10.85894097222222
  1
壁取付穴(2ヵ所)
 41
0.7
 72
     1
 11
18.75
 21
274.9999999999999
 31
0.0
100
AcDbText
 73
     2
  0
LINE
  5
898
330
914
100
AcDbEntity
  8
DATA
  6
Continuous
 62
     7
100
AcDbLine
 10
0.0
 20
231.2499999999999
 30
0.0
 11
0.0
 21
256.2499999999999
 31
0.0
  0
SOLID
  5
899
330
914
100
AcDbEntity
  8
DATA
 62
     7
100
AcDbTrace
 10
0.0
 20
231.2499999999999
 30
0.0
 11
-3.402954743875258
 21
243.9499999999999
 31
0.0
 12
3.402954743875257
 22
243.9499999999999
 32
0.0
 13
3.402954743875257
 23
243.9499999999999
 33
0.0
  0
TEXT
  5
89A
330
914
100
AcDbEntity
  8
DATA
 62
     7
100
AcDbText
 10
200.0
 20
-464.8809949999997
 30
0.0
 40
9.773046875
  1
MTC-2P
 41
0.7
 11
200.0
 21
-455.1079481249997
 31
0.0
100
AcDbText
 73
     3
  0
TEXT
  5
89B
330
914
100
AcDbEntity
  8
DATA
 62
     7
100
AcDbText
 10
190.0
 20
-450.2968149999999
 30
0.0
 40
7.601258680555555
  1
壁取付キット
 41
0.7
 11
190.0
 21
-442.6955563194443
 31
0.0
100
AcDbText
 73
     3
  0
LWPOLYLINE
  5
89C
330
914
100
AcDbEntity
  8
DATA
  6
Continuous
 62
     7
100
AcDbPolyline
 90
        4
 70
     1
 43
0.0
 10
5.843850473904016
 20
43.68770094780802
 10
37.84385047390401
 20
43.68770094780802
 10
37.84385047390401
 20
0.0
 10
5.843850473904016
 20
0.0
  0
DIMENSION
  5
8A3
330
914
100
AcDbEntity
  8
DATA
  6
Continuous
 62
     7
100
AcDbDimension
  2
*D1
 10
-112.5
 20
-141.2500000000001
 30
0.0
 11
-112.5
 21
-100.0
 31
0.0
 70
   128
 71
     5
 42
-1.0
  3
HIBINO
100
AcDbAlignedDimension
 13
-123.75
 23
-107.2500000000001
 33
0.0
 14
-128.5
 24
-141.2500000000001
 34
0.0
 50
90.0
100
AcDbRotatedDimension
  0
ENDSEC
  0
SECTION
  2
OBJECTS
  0
DICTIONARY
  5
8B1
330
0
100
AcDbDictionary
281
     1
  3
ACAD_CIP_PREVIOUS_PRODUCT_INFO
350
930
  3
ACAD_COLOR
350
907
  3
ACAD_DETAILVIEWSTYLE
350
90E
  3
ACAD_GROUP
350
8B2
  3
ACAD_LAYOUT
350
906
  3
ACAD_MATERIAL
350
8B5
  3
ACAD_MLEADERSTYLE
350
90A
  3
ACAD_MLINESTYLE
350
903
  3
ACAD_PLOTSETTINGS
350
905
  3
ACAD_PLOTSTYLENAME
350
8B3
  3
ACAD_SCALELIST
350
8E7
  3
ACAD_SECTIONVIEWSTYLE
350
90C
  3
ACAD_TABLESTYLE
350
908
  3
ACAD_VISUALSTYLE
350
8CE
  3
ACDB_RECOMPOSE_DATA
350
948
  3
AcDbVariableDictionary
350
93B
  3
DWGPROPS
350
949
  0
DICTIONARY
  5
931
330
8F9
100
AcDbDictionary
280
     1
281
     1
  3
ADSK_XREC_LAYER_RECONCILED
360
932
  0
DICTIONARY
  5
933
330
918
100
AcDbDictionary
280
     1
281
     1
  3
ADSK_XREC_LAYER_RECONCILED
360
934
  0
DICTIONARY
  5
935
330
924
100
AcDbDictionary
280
     1
281
     1
  3
ADSK_XREC_LAYER_RECONCILED
360
936
  0
DICTIONARY
  5
937
330
925
100
AcDbDictionary
280
     1
281
     1
  3
ADSK_XREC_LAYER_RECONCILED
360
938
  0
DICTIONARY
  5
939
330
926
100
AcDbDictionary
280
     1
281
     1
  3
ADSK_XREC_LAYER_RECONCILED
360
93A
  0
XRECORD
  5
930
102
{ACAD_REACTORS
330
8B1
102
}
330
8B1
100
AcDbXrecord
280
     1
300
ACDLT
300
2019
300

  0
DICTIONARY
  5
907
102
{ACAD_REACTORS
330
8B1
102
}
330
8B1
100
AcDbDictionary
281
     1
  0
DICTIONARY
  5
90E
102
{ACAD_REACTORS
330
8B1
102
}
330
8B1
100
AcDbDictionary
281
     1
  3
Imperial24
350
90F
  0
DICTIONARY
  5
8B2
102
{ACAD_REACTORS
330
8B1
102
}
330
8B1
100
AcDbDictionary
281
     1
  0
DICTIONARY
  5
906
102
{ACAD_REACTORS
330
8B1
102
}
330
8B1
100
AcDbDictionary
281
     1
  3
Model
350
917
  3
レイアウト1
350
913
  0
DICTIONARY
  5
8B5
102
{ACAD_REACTORS
330
8B1
102
}
330
8B1
100
AcDbDictionary
281
     1
  3
ByBlock
350
8BE
  3
ByLayer
350
8B6
  3
Global
350
8C6
  0
DICTIONARY
  5
90A
102
{ACAD_REACTORS
330
8B1
102
}
330
8B1
100
AcDbDictionary
281
     1
  3
Standard
350
90B
  0
DICTIONARY
  5
903
102
{ACAD_REACTORS
330
8B1
102
}
330
8B1
100
AcDbDictionary
281
     1
  3
Standard
350
904
  0
DICTIONARY
  5
905
102
{ACAD_REACTORS
330
8B1
102
}
330
8B1
100
AcDbDictionary
281
     1
  0
ACDBDICTIONARYWDFLT
  5
8B3
102
{ACAD_REACTORS
330
8B1
102
}
330
8B1
100
AcDbDictionary
281
     1
  3
Normal
350
8B4
100
AcDbDictionaryWithDefault
340
8B4
  0
DICTIONARY
  5
8E7
102
{ACAD_REACTORS
330
8B1
102
}
330
8B1
100
AcDbDictionary
281
     1
  3
A0
350
8E8
  3
A1
350
8E9
  3
A2
350
8EA
  3
A3
350
8EB
  3
A4
350
8EC
  3
A5
350
8ED
  3
A6
350
8EE
  3
A7
350
8EF
  3
A8
350
8F0
  3
A9
350
8F1
  3
B0
350
8F2
  3
B1
350
8F3
  3
B2
350
8F4
  3
B3
350
8F5
  3
B4
350
8F6
  3
B5
350
8F7
  3
B6
350
8F8
  0
DICTIONARY
  5
90C
102
{ACAD_REACTORS
330
8B1
102
}
330
8B1
100
AcDbDictionary
281
     1
  3
Imperial24
350
90D
  0
DICTIONARY
  5
908
102
{ACAD_REACTORS
330
8B1
102
}
330
8B1
100
AcDbDictionary
281
     1
  3
Standard
350
909
  0
DICTIONARY
  5
8CE
102
{ACAD_REACTORS
330
8B1
102
}
330
8B1
100
AcDbDictionary
281
     1
  3
2dWireframe
350
8D4
  3
Basic
350
8D3
  3
Brighten
350
8DA
  3
ColorChange
350
8DE
  3
Conceptual
350
8D7
  3
Dim
350
8D9
  3
EdgeColorOff
350
8E6
  3
Facepattern
350
8DD
  3
Flat
350
8CF
  3
FlatWithEdges
350
8D0
  3
Gouraud
350
8D1
  3
GouraudWithEdges
350
8D2
  3
Hidden
350
8D6
  3
JitterOff
350
8E4
  3
Linepattern
350
8DC
  3
OverhangOff
350
8E5
  3
Realistic
350
8D8
  3
Shaded
350
8E3
  3
Shaded with edges
350
8E2
  3
Shades of Gray
350
8DF
  3
Sketchy
350
8E0
  3
Thicken
350
8DB
  3
Wireframe
350
8D5
  3
X-Ray
350
8E1
  0
XRECORD
  5
948
102
{ACAD_REACTORS
330
8B1
102
}
330
8B1
100
AcDbXrecord
280
     1
 90
        1
330
909
  0
DICTIONARY
  5
93B
102
{ACAD_REACTORS
330
8B1
102
}
330
8B1
100
AcDbDictionary
281
     1
  3
CANNOSCALE
350
940
  3
CMLEADERSTYLE
350
93D
  3
CTABLESTYLE
350
93C
  3
CVIEWDETAILSTYLE
350
93E
  3
CVIEWSECTIONSTYLE
350
93F
  3
DIMASSOC
350
943
  3
INDEXCTL
350
942
  3
SORTENTS
350
941
  3
XCLIPFRAME
350
944
  0
XRECORD
  5
949
102
{ACAD_REACTORS
330
8B1
102
}
330
8B1
100
AcDbXrecord
280
     1
  1
DWGPROPS COOKIE
  2

  3

  4

  6

  7

  8
sasaki_n
  9

300
=
301
=
302
=
303
=
304
=
305
=
306
=
307
=
308
=
309
=
 40
0.000474537037037
 41
2458796.738113426
 42
2458796.739097222
  1

 90
        0
  0
XRECORD
  5
932
102
{ACAD_REACTORS
330
931
102
}
330
931
100
AcDbXrecord
280
     1
290
     1
  0
XRECORD
  5
934
102
{ACAD_REACTORS
330
933
102
}
330
933
100
AcDbXrecord
280
     1
290
     1
  0
XRECORD
  5
936
102
{ACAD_REACTORS
330
935
102
}
330
935
100
AcDbXrecord
280
     1
290
     1
  0
XRECORD
  5
938
102
{ACAD_REACTORS
330
937
102
}
330
937
100
AcDbXrecord
280
     1
290
     1
  0
XRECORD
  5
93A
102
{ACAD_REACTORS
330
939
102
}
330
939
100
AcDbXrecord
280
     1
290
     1
  0
ACDBDETAILVIEWSTYLE
  5
90F
102
{ACAD_XDICTIONARY
360
981
102
}
102
{ACAD_REACTORS
330
90E
102
}
330
90E
100
AcDbModelDocViewStyle
 70
     0
  3
Imperial24
290
     0
100
AcDbDetailViewStyle
 70
     0
 71
     0
 90
        3
 71
     1
340
8FA
 40
0.24
340
0
 40
0.24
300

 40
0.36
280
     3
 71
     2
340
901
 90
       25
 71
     3
340
8FA
 40
0.24
 90
        1
 40
0.75
 90
        1
300
%<\AcVar ViewType \f "%tc1">% %<\AcVar ViewDetailId>%\PSCALE %<\AcVar ViewScale \f "%sn">%
 71
     4
340
901
 90
       25
340
901
 90
       25
280
     0
  0
LAYOUT
  5
917
102
{ACAD_XDICTIONARY
360
985
102
}
102
{ACAD_REACTORS
330
906
102
}
330
906
100
AcDbPlotSettings
  1

  2
DocuPrint 3000-3
  4

  6

 40
0.0
 41
0.0
 42
0.0
 43
0.0
 44
0.0
 45
0.0
 46
0.0
 47
0.0
 48
0.0
 49
0.0
140
0.0
141
0.0
142
1.0
143
1.0
 70
  1712
 72
     0
 73
     0
 74
     0
  7

 75
     0
147
1.0
148
0.0
149
0.0
100
AcDbLayout
  1
Model
 70
     1
 71
     0
 10
0.0
 20
0.0
 11
12.0
 21
9.0
 12
0.0
 22
0.0
 32
0.0
 14
0.0
 24
0.0
 34
0.0
 15
0.0
 25
0.0
 35
0.0
146
0.0
 13
0.0
 23
0.0
 33
0.0
 16
1.0
 26
0.0
 36
0.0
 17
0.0
 27
1.0
 37
0.0
 76
     0
330
914
331
919
  0
LAYOUT
  5
913
102
{ACAD_XDICTIONARY
360
983
102
}
102
{ACAD_REACTORS
330
906
102
}
330
906
100
AcDbPlotSettings
  1

  2
DocuPrint 3000-3
  4

  6

 40
0.0
 41
0.0
 42
0.0
 43
0.0
 44
0.0
 45
0.0
 46
0.0
 47
0.0
 48
0.0
 49
0.0
140
0.0
141
0.0
142
1.0
143
1.0
 70
   688
 72
     0
 73
     0
 74
     5
  7

 75
    16
147
1.0
148
0.0
149
0.0
100
AcDbLayout
  1
レイアウト1
 70
     0
 71
     1
 10
0.0
 20
0.0
 11
12.0
 21
9.0
 12
0.0
 22
0.0
 32
0.0
 14
1.000000000000000E+20
 24
1.000000000000000E+20
 34
1.000000000000000E+20
 15
-1.000000000000000E+20
 25
-1.000000000000000E+20
 35
-1.000000000000000E+20
146
0.0
 13
0.0
 23
0.0
 33
0.0
 16
1.0
 26
0.0
 36
0.0
 17
0.0
 27
1.0
 37
0.0
 76
     0
330
910
  0
MATERIAL
  5
8BE
102
{ACAD_XDICTIONARY
360
8BF
102
}
102
{ACAD_REACTORS
330
8B5
102
}
330
8B5
100
AcDbMaterial
  1
ByBlock
 72
     0
 43
0.0208333333333333
 43
0.0
 43
0.0
 43
0.0
 43
0.0
 43
0.0208333333333333
 43
0.0
 43
0.0
 43
0.0
 43
0.0
 43
1.0
 43
0.0
 43
0.0
 43
0.0
 43
0.0
 43
1.0
 77
     0
 47
0.0208333333333333
 47
0.0
 47
0.0
 47
0.0
 47
0.0
 47
0.0208333333333333
 47
0.0
 47
0.0
 47
0.0
 47
0.0
 47
1.0
 47
0.0
 47
0.0
 47
0.0
 47
0.0
 47
1.0
171
     0
 49
0.0208333333333333
 49
0.0
 49
0.0
 49
0.0
 49
0.0
 49
0.0208333333333333
 49
0.0
 49
0.0
 49
0.0
 49
0.0
 49
1.0
 49
0.0
 49
0.0
 49
0.0
 49
0.0
 49
1.0
175
     0
142
0.0208333333333333
142
0.0
142
0.0
142
0.0
142
0.0
142
0.0208333333333333
142
0.0
142
0.0
142
0.0
142
0.0
142
1.0
142
0.0
142
0.0
142
0.0
142
0.0
142
1.0
179
     0
144
0.0208333333333333
144
0.0
144
0.0
144
0.0
144
0.0
144
0.0208333333333333
144
0.0
144
0.0
144
0.0
144
0.0
144
1.0
144
0.0
144
0.0
144
0.0
144
0.0
144
1.0
147
0.0208333333333333
147
0.0
147
0.0
147
0.0
147
0.0
147
0.0208333333333333
147
0.0
147
0.0
147
0.0
147
0.0
147
1.0
147
0.0
147
0.0
147
0.0
147
0.0
147
1.0
  0
MATERIAL
  5
8B6
102
{ACAD_XDICTIONARY
360
8B7
102
}
102
{ACAD_REACTORS
330
8B5
102
}
330
8B5
100
AcDbMaterial
  1
ByLayer
 72
     0
 43
0.0208333333333333
 43
0.0
 43
0.0
 43
0.0
 43
0.0
 43
0.0208333333333333
 43
0.0
 43
0.0
 43
0.0
 43
0.0
 43
1.0
 43
0.0
 43
0.0
 43
0.0
 43
0.0
 43
1.0
 77
     0
 47
0.0208333333333333
 47
0.0
 47
0.0
 47
0.0
 47
0.0
 47
0.0208333333333333
 47
0.0
 47
0.0
 47
0.0
 47
0.0
 47
1.0
 47
0.0
 47
0.0
 47
0.0
 47
0.0
 47
1.0
171
     0
 49
0.0208333333333333
 49
0.0
 49
0.0
 49
0.0
 49
0.0
 49
0.0208333333333333
 49
0.0
 49
0.0
 49
0.0
 49
0.0
 49
1.0
 49
0.0
 49
0.0
 49
0.0
 49
0.0
 49
1.0
175
     0
142
0.0208333333333333
142
0.0
142
0.0
142
0.0
142
0.0
142
0.0208333333333333
142
0.0
142
0.0
142
0.0
142
0.0
142
1.0
142
0.0
142
0.0
142
0.0
142
0.0
142
1.0
179
     0
144
0.0208333333333333
144
0.0
144
0.0
144
0.0
144
0.0
144
0.0208333333333333
144
0.0
144
0.0
144
0.0
144
0.0
144
1.0
144
0.0
144
0.0
144
0.0
144
0.0
144
1.0
147
0.0208333333333333
147
0.0
147
0.0
147
0.0
147
0.0
147
0.0208333333333333
147
0.0
147
0.0
147
0.0
147
0.0
147
1.0
147
0.0
147
0.0
147
0.0
147
0.0
147
1.0
  0
MATERIAL
  5
8C6
102
{ACAD_XDICTIONARY
360
8C7
102
}
102
{ACAD_REACTORS
330
8B5
102
}
330
8B5
100
AcDbMaterial
  1
Global
 72
     0
 43
0.0208333333333333
 43
0.0
 43
0.0
 43
0.0
 43
0.0
 43
0.0208333333333333
 43
0.0
 43
0.0
 43
0.0
 43
0.0
 43
1.0
 43
0.0
 43
0.0
 43
0.0
 43
0.0
 43
1.0
 77
     0
 47
0.0208333333333333
 47
0.0
 47
0.0
 47
0.0
 47
0.0
 47
0.0208333333333333
 47
0.0
 47
0.0
 47
0.0
 47
0.0
 47
1.0
 47
0.0
 47
0.0
 47
0.0
 47
0.0
 47
1.0
171
     0
 49
0.0208333333333333
 49
0.0
 49
0.0
 49
0.0
 49
0.0
 49
0.0208333333333333
 49
0.0
 49
0.0
 49
0.0
 49
0.0
 49
1.0
 49
0.0
 49
0.0
 49
0.0
 49
0.0
 49
1.0
175
     0
142
0.0208333333333333
142
0.0
142
0.0
142
0.0
142
0.0
142
0.0208333333333333
142
0.0
142
0.0
142
0.0
142
0.0
142
1.0
142
0.0
142
0.0
142
0.0
142
0.0
142
1.0
179
     0
144
0.0208333333333333
144
0.0
144
0.0
144
0.0
144
0.0
144
0.0208333333333333
144
0.0
144
0.0
144
0.0
144
0.0
144
1.0
144
0.0
144
0.0
144
0.0
144
0.0
144
1.0
147
0.0208333333333333
147
0.0
147
0.0
147
0.0
147
0.0
147
0.0208333333333333
147
0.0
147
0.0
147
0.0
147
0.0
147
1.0
147
0.0
147
0.0
147
0.0
147
0.0
147
1.0
  0
MLEADERSTYLE
  5
90B
102
{ACAD_REACTORS
330
90A
102
}
330
90A
100
AcDbMLeaderStyle
170
     2
171
     1
172
     0
 90
        2
 40
0.0
 41
0.0
173
     1
 91
-1056964608
340
8FF
 92
       -2
290
     1
 42
0.09
291
     1
 43
0.36
  3
Standard
 44
0.18
300

342
8FA
174
     1
178
     6
175
     1
176
     0
 93
-1056964608
 45
0.18
292
     0
297
     0
 46
0.18
 94
-1056964608
 47
1.0
 49
1.0
140
1.0
293
     1
141
0.0
294
     1
177
     0
142
1.0
295
     0
296
     0
143
0.125
1001
ACAD_MLEADERVER
1070
     2
  0
MLINESTYLE
  5
904
102
{ACAD_REACTORS
330
903
102
}
330
903
100
AcDbMlineStyle
  2
STANDARD
 70
     0
  3

 62
   256
 51
90.0
 52
90.0
 71
     2
 49
0.5
 62
   256
  6
BYLAYER
 49
-0.5
 62
   256
  6
BYLAYER
  0
ACDBPLACEHOLDER
  5
8B4
102
{ACAD_REACTORS
330
8B3
102
}
330
8B3
  0
SCALE
  5
8E8
102
{ACAD_REACTORS
330
8E7
102
}
330
8E7
100
AcDbScale
 70
     0
300
1:1
140
1.0
141
1.0
290
     1
  0
SCALE
  5
8E9
102
{ACAD_REACTORS
330
8E7
102
}
330
8E7
100
AcDbScale
 70
     0
300
1/128" = 1'-0"
140
0.0078125
141
12.0
290
     0
  0
SCALE
  5
8EA
102
{ACAD_REACTORS
330
8E7
102
}
330
8E7
100
AcDbScale
 70
     0
300
1/64" = 1'-0"
140
0.015625
141
12.0
290
     0
  0
SCALE
  5
8EB
102
{ACAD_REACTORS
330
8E7
102
}
330
8E7
100
AcDbScale
 70
     0
300
1/32" = 1'-0"
140
0.03125
141
12.0
290
     0
  0
SCALE
  5
8EC
102
{ACAD_REACTORS
330
8E7
102
}
330
8E7
100
AcDbScale
 70
     0
300
1/16" = 1'-0"
140
0.0625
141
12.0
290
     0
  0
SCALE
  5
8ED
102
{ACAD_REACTORS
330
8E7
102
}
330
8E7
100
AcDbScale
 70
     0
300
3/32" = 1'-0"
140
0.09375
141
12.0
290
     0
  0
SCALE
  5
8EE
102
{ACAD_REACTORS
330
8E7
102
}
330
8E7
100
AcDbScale
 70
     0
300
1/8" = 1'-0"
140
0.125
141
12.0
290
     0
  0
SCALE
  5
8EF
102
{ACAD_REACTORS
330
8E7
102
}
330
8E7
100
AcDbScale
 70
     0
300
3/16" = 1'-0"
140
0.1875
141
12.0
290
     0
  0
SCALE
  5
8F0
102
{ACAD_REACTORS
330
8E7
102
}
330
8E7
100
AcDbScale
 70
     0
300
1/4" = 1'-0"
140
0.25
141
12.0
290
     0
  0
SCALE
  5
8F1
102
{ACAD_REACTORS
330
8E7
102
}
330
8E7
100
AcDbScale
 70
     0
300
3/8" = 1'-0"
140
0.375
141
12.0
290
     0
  0
SCALE
  5
8F2
102
{ACAD_REACTORS
330
8E7
102
}
330
8E7
100
AcDbScale
 70
     0
300
1/2" = 1'-0"
140
0.5
141
12.0
290
     0
  0
SCALE
  5
8F3
102
{ACAD_REACTORS
330
8E7
102
}
330
8E7
100
AcDbScale
 70
     0
300
3/4" = 1'-0"
140
0.75
141
12.0
290
     0
  0
SCALE
  5
8F4
102
{ACAD_REACTORS
330
8E7
102
}
330
8E7
100
AcDbScale
 70
     0
300
1" = 1'-0"
140
1.0
141
12.0
290
     0
  0
SCALE
  5
8F5
102
{ACAD_REACTORS
330
8E7
102
}
330
8E7
100
AcDbScale
 70
     0
300
1-1/2" = 1'-0"
140
1.5
141
12.0
290
     0
  0
SCALE
  5
8F6
102
{ACAD_REACTORS
330
8E7
102
}
330
8E7
100
AcDbScale
 70
     0
300
3" = 1'-0"
140
3.0
141
12.0
290
     0
  0
SCALE
  5
8F7
102
{ACAD_REACTORS
330
8E7
102
}
330
8E7
100
AcDbScale
 70
     0
300
6" = 1'-0"
140
6.0
141
12.0
290
     0
  0
SCALE
  5
8F8
102
{ACAD_REACTORS
330
8E7
102
}
330
8E7
100
AcDbScale
 70
     0
300
1'-0" = 1'-0"
140
12.0
141
12.0
290
     0
  0
ACDBSECTIONVIEWSTYLE
  5
90D
102
{ACAD_XDICTIONARY
360
97F
102
}
102
{ACAD_REACTORS
330
90C
102
}
330
90C
100
AcDbModelDocViewStyle
 70
     0
  3
Imperial24
290
     0
100
AcDbSectionViewStyle
 70
     0
 71
     0
 90
       78
 71
     1
340
8FA
 40
0.24
340
0
340
0
 40
0.24
300
I, O, Q, S, X, Z
 40
0.48
 90
        3
 40
0.18
 90
        1
 71
     2
340
901
 90
       25
340
901
 90
       50
 40
0.24
 40
0.0
 40
0.24
 71
     3
340
8FA
 40
0.24
 90
        1
 40
0.75
 90
        1
300
%<\AcVar ViewType \f "%tc1">% %<\AcVar ViewSectionStartId>%-%<\AcVar ViewSectionEndId>%\PSCALE %<\AcVar ViewScale \f "%sn">%
 71
     4
300
ANSI31
 40
1.0
 90
        0
290
     0
290
     0
 90
        6
 40
0.0
 40
1.570796326794896
 40
0.2617993877991494
 40
1.308996938995747
 40
-0.2617993877991494
 40
1.832595714594046
  0
TABLESTYLE
  5
909
102
{ACAD_XDICTIONARY
360
946
102
}
102
{ACAD_REACTORS
330
908
102
}
330
908
100
AcDbTableStyle
  3
Standard
 70
     0
 71
     0
 40
0.06
 41
0.06
280
     0
281
     0
  7
STANDARD
140
0.18
170
     2
 62
     0
 63
     7
283
     0
274
    -2
284
     1
 64
     0
275
    -2
285
     1
 65
     0
276
    -2
286
     1
 66
     0
277
    -2
287
     1
 67
     0
278
    -2
288
     1
 68
     0
279
    -2
289
     1
 69
     0
  7
STANDARD
140
0.25
170
     5
 62
     0
 63
     7
283
     0
274
    -2
284
     1
 64
     0
275
    -2
285
     1
 65
     0
276
    -2
286
     1
 66
     0
277
    -2
287
     1
 67
     0
278
    -2
288
     1
 68
     0
279
    -2
289
     1
 69
     0
  7
STANDARD
140
0.18
170
     5
 62
     0
 63
     7
283
     0
274
    -2
284
     1
 64
     0
275
    -2
285
     1
 65
     0
276
    -2
286
     1
 66
     0
277
    -2
287
     1
 67
     0
278
    -2
288
     1
 68
     0
279
    -2
289
     1
 69
     0
  0
VISUALSTYLE
  5
8D4
102
{ACAD_XDICTIONARY
360
957
102
}
102
{ACAD_REACTORS
330
8CE
102
}
330
8CE
100
AcDbVisualStyle
  2
2dWireframe
 70
     4
 71
     0
 72
     2
 73
     0
 90
        0
 40
-0.6
 41
-30.0
 62
     5
 63
     7
 74
     1
 91
        4
 64
     7
 65
   257
 75
     1
175
     1
 42
1.0
 92
        0
 66
   257
 43
1.0
 76
     1
 77
     6
 78
     2
 67
     7
 79
     5
170
     0
171
     0
290
     0
174
     0
 93
        1
 44
0.0
173
     0
291
     0
 45
0.0
1001
ACAD
1000
AcDbSavedByObjectVersion
1070
     0
  0
VISUALSTYLE
  5
8D3
102
{ACAD_XDICTIONARY
360
955
102
}
102
{ACAD_REACTORS
330
8CE
102
}
330
8CE
100
AcDbVisualStyle
  2
Basic
 70
     7
 71
     1
 72
     0
 73
     1
 90
        0
 40
-0.6
 41
-30.0
 62
     5
 63
     7
 74
     0
 91
        4
 64
     7
 65
   257
 75
     1
175
     1
 42
1.0
 92
        8
 66
     7
 43
1.0
 76
     1
 77
     6
 78
     2
 67
     7
 79
     5
170
     0
171
     0
290
     0
174
     0
 93
        1
 44
0.0
173
     0
291
     1
 45
0.0
1001
ACAD
1000
AcDbSavedByObjectVersion
1070
     0
  0
VISUALSTYLE
  5
8DA
102
{ACAD_XDICTIONARY
360
963
102
}
102
{ACAD_REACTORS
330
8CE
102
}
330
8CE
100
AcDbVisualStyle
  2
Brighten
 70
    12
 71
     2
 72
     2
 73
     0
 90
        0
 40
-0.6
 41
-30.0
 62
     5
 63
     7
 74
     1
 91
        4
 64
     7
 65
   257
 75
     1
175
     1
 42
1.0
 92
        8
 66
     7
 43
1.0
 76
     1
 77
     6
 78
     2
 67
     7
 79
     5
170
     0
171
     0
290
     0
174
     0
 93
        1
 44
50.0
173
     0
291
     1
 45
0.0
1001
ACAD
1000
AcDbSavedByObjectVersion
1070
     0
  0
VISUALSTYLE
  5
8DE
102
{ACAD_XDICTIONARY
360
96B
102
}
102
{ACAD_REACTORS
330
8CE
102
}
330
8CE
100
AcDbVisualStyle
  2
ColorChange
 70
    16
 71
     2
 72
     2
 73
     3
 90
        0
 40
-0.6
 41
-30.0
 62
     5
 63
     8
 74
     1
 91
        4
 64
     7
 65
   257
 75
     1
175
     1
 42
1.0
 92
        8
 66
     8
 43
1.0
 76
     1
 77
     6
 78
     2
 67
     7
 79
     5
170
     0
171
     0
290
     0
174
     0
 93
        1
 44
0.0
173
     0
291
     1
 45
0.0
1001
ACAD
1000
AcDbSavedByObjectVersion
1070
     0
  0
VISUALSTYLE
  5
8D7
102
{ACAD_XDICTIONARY
360
95D
102
}
102
{ACAD_REACTORS
330
8CE
102
}
330
8CE
100
AcDbVisualStyle
  2
Conceptual
 70
     9
 71
     3
 72
     2
 73
     0
 90
        0
 40
-0.6
 41
-30.0
 62
     5
 63
     7
 74
     2
 91
        2
 64
     7
 65
   257
 75
     1
175
     1
 42
179.0
 92
        8
 66
     7
 43
1.0
 76
     1
 77
     6
 78
     2
 67
     7
 79
     3
170
     0
171
     0
290
     0
174
     0
 93
        1
 44
0.0
173
     0
291
     0
 45
0.0
1001
ACAD
1000
AcDbSavedByObjectVersion
1070
     0
  0
VISUALSTYLE
  5
8D9
102
{ACAD_XDICTIONARY
360
961
102
}
102
{ACAD_REACTORS
330
8CE
102
}
330
8CE
100
AcDbVisualStyle
  2
Dim
 70
    11
 71
     2
 72
     2
 73
     0
 90
        0
 40
-0.6
 41
-30.0
 62
     5
 63
     7
 74
     1
 91
        4
 64
     7
 65
   257
 75
     1
175
     1
 42
1.0
 92
        8
 66
     7
 43
1.0
 76
     1
 77
     6
 78
     2
 67
     7
 79
     5
170
     0
171
     0
290
     0
174
     0
 93
        1
 44
-50.0
173
     0
291
     1
 45
0.0
1001
ACAD
1000
AcDbSavedByObjectVersion
1070
     0
  0
VISUALSTYLE
  5
8E6
102
{ACAD_XDICTIONARY
360
97B
102
}
102
{ACAD_REACTORS
330
8CE
102
}
330
8CE
100
AcDbVisualStyle
  2
EdgeColorOff
 70
    22
 71
     2
 72
     2
 73
     0
 90
        0
 40
-0.6
 41
-30.0
 62
     5
 63
     7
 74
     1
 91
        4
 64
     7
 65
   257
 75
     1
175
     1
 42
1.0
 92
        8
 66
     7
 43
1.0
 76
     1
 77
     6
 78
     2
 67
     7
 79
     5
170
     0
171
     0
290
     0
174
     0
 93
        1
 44
0.0
173
     0
291
     1
 45
0.0
1001
ACAD
1000
AcDbSavedByObjectVersion
1070
     0
  0
VISUALSTYLE
  5
8DD
102
{ACAD_XDICTIONARY
360
969
102
}
102
{ACAD_REACTORS
330
8CE
102
}
330
8CE
100
AcDbVisualStyle
  2
Facepattern
 70
    15
 71
     2
 72
     2
 73
     0
 90
        0
 40
-0.6
 41
-30.0
 62
     5
 63
     7
 74
     1
 91
        4
 64
     7
 65
   257
 75
     1
175
     1
 42
1.0
 92
        8
 66
     7
 43
1.0
 76
     1
 77
     6
 78
     2
 67
     7
 79
     5
170
     0
171
     0
290
     0
174
     0
 93
        1
 44
0.0
173
     0
291
     1
 45
0.0
1001
ACAD
1000
AcDbSavedByObjectVersion
1070
     0
  0
VISUALSTYLE
  5
8CF
102
{ACAD_XDICTIONARY
360
94D
102
}
102
{ACAD_REACTORS
330
8CE
102
}
330
8CE
100
AcDbVisualStyle
  2
Flat
 70
     0
 71
     2
 72
     1
 73
     1
 90
        2
 40
-0.6
 41
30.0
 62
     5
 63
     7
 74
     0
 91
        0
 64
     7
 65
   257
 75
     1
175
     1
 42
1.0
 92
        8
 66
     7
 43
1.0
 76
     1
 77
     6
 78
     2
 67
     7
 79
     5
170
     0
171
     0
290
     0
174
     0
 93
       13
 44
0.0
173
     0
291
     1
 45
0.0
1001
ACAD
1000
AcDbSavedByObjectVersion
1070
     0
  0
VISUALSTYLE
  5
8D0
102
{ACAD_XDICTIONARY
360
94F
102
}
102
{ACAD_REACTORS
330
8CE
102
}
330
8CE
100
AcDbVisualStyle
  2
FlatWithEdges
 70
     1
 71
     2
 72
     1
 73
     1
 90
        2
 40
-0.6
 41
30.0
 62
     5
 63
     7
 74
     1
 91
        0
 64
     7
 65
   257
 75
     1
175
     1
 42
1.0
 92
        0
 66
   257
 43
1.0
 76
     1
 77
     6
 78
     2
 67
     7
 79
     5
170
     0
171
     0
290
     0
174
     0
 93
       13
 44
0.0
173
     0
291
     1
 45
0.0
1001
ACAD
1000
AcDbSavedByObjectVersion
1070
     0
  0
VISUALSTYLE
  5
8D1
102
{ACAD_XDICTIONARY
360
951
102
}
102
{ACAD_REACTORS
330
8CE
102
}
330
8CE
100
AcDbVisualStyle
  2
Gouraud
 70
     2
 71
     2
 72
     2
 73
     1
 90
        2
 40
-0.6
 41
30.0
 62
     5
 63
     7
 74
     0
 91
        0
 64
     7
 65
   257
 75
     1
175
     1
 42
1.0
 92
        0
 66
     7
 43
1.0
 76
     1
 77
     6
 78
     2
 67
     7
 79
     5
170
     0
171
     0
290
     0
174
     0
 93
       13
 44
0.0
173
     0
291
     1
 45
0.0
1001
ACAD
1000
AcDbSavedByObjectVersion
1070
     0
  0
VISUALSTYLE
  5
8D2
102
{ACAD_XDICTIONARY
360
953
102
}
102
{ACAD_REACTORS
330
8CE
102
}
330
8CE
100
AcDbVisualStyle
  2
GouraudWithEdges
 70
     3
 71
     2
 72
     2
 73
     1
 90
        2
 40
-0.6
 41
30.0
 62
     5
 63
     7
 74
     1
 91
        0
 64
     7
 65
   257
 75
     1
175
     1
 42
1.0
 92
        0
 66
   257
 43
1.0
 76
     1
 77
     6
 78
     2
 67
     7
 79
     5
170
     0
171
     0
290
     0
174
     0
 93
       13
 44
0.0
173
     0
291
     1
 45
0.0
1001
ACAD
1000
AcDbSavedByObjectVersion
1070
     0
  0
VISUALSTYLE
  5
8D6
102
{ACAD_XDICTIONARY
360
95B
102
}
102
{ACAD_REACTORS
330
8CE
102
}
330
8CE
100
AcDbVisualStyle
  2
Hidden
 70
     6
 71
     1
 72
     2
 73
     2
 90
        0
 40
-0.6
 41
-30.0
 62
     5
 63
     7
 74
     2
 91
        2
 64
     7
 65
   257
 75
     2
175
     1
 42
40.0
 92
        0
 66
   257
 43
1.0
 76
     1
 77
     6
 78
     2
 67
     7
 79
     3
170
     0
171
     0
290
     0
174
     0
 93
        1
 44
0.0
173
     0
291
     0
 45
0.0
1001
ACAD
1000
AcDbSavedByObjectVersion
1070
     0
  0
VISUALSTYLE
  5
8E4
102
{ACAD_XDICTIONARY
360
977
102
}
102
{ACAD_REACTORS
330
8CE
102
}
330
8CE
100
AcDbVisualStyle
  2
JitterOff
 70
    20
 71
     2
 72
     2
 73
     0
 90
        0
 40
-0.6
 41
-30.0
 62
     5
 63
     7
 74
     1
 91
        4
 64
     7
 65
   257
 75
     1
175
     1
 42
1.0
 92
       10
 66
     7
 43
1.0
 76
     1
 77
     6
 78
     2
 67
     7
 79
     5
170
     0
171
     0
290
     0
174
     0
 93
        1
 44
0.0
173
     0
291
     1
 45
0.0
1001
ACAD
1000
AcDbSavedByObjectVersion
1070
     0
  0
VISUALSTYLE
  5
8DC
102
{ACAD_XDICTIONARY
360
967
102
}
102
{ACAD_REACTORS
330
8CE
102
}
330
8CE
100
AcDbVisualStyle
  2
Linepattern
 70
    14
 71
     2
 72
     2
 73
     0
 90
        0
 40
-0.6
 41
-30.0
 62
     5
 63
     7
 74
     1
 91
        4
 64
     7
 65
   257
 75
     7
175
     7
 42
1.0
 92
        8
 66
     7
 43
1.0
 76
     1
 77
     6
 78
     2
 67
     7
 79
     5
170
     0
171
     0
290
     0
174
     0
 93
        1
 44
0.0
173
     0
291
     1
 45
0.0
1001
ACAD
1000
AcDbSavedByObjectVersion
1070
     0
  0
VISUALSTYLE
  5
8E5
102
{ACAD_XDICTIONARY
360
979
102
}
102
{ACAD_REACTORS
330
8CE
102
}
330
8CE
100
AcDbVisualStyle
  2
OverhangOff
 70
    21
 71
     2
 72
     2
 73
     0
 90
        0
 40
-0.6
 41
-30.0
 62
     5
 63
     7
 74
     1
 91
        4
 64
     7
 65
   257
 75
     1
175
     1
 42
1.0
 92
        9
 66
     7
 43
1.0
 76
     1
 77
     6
 78
     2
 67
     7
 79
     5
170
     0
171
     0
290
     0
174
     0
 93
        1
 44
0.0
173
     0
291
     1
 45
0.0
1001
ACAD
1000
AcDbSavedByObjectVersion
1070
     0
  0
VISUALSTYLE
  5
8D8
102
{ACAD_XDICTIONARY
360
95F
102
}
102
{ACAD_REACTORS
330
8CE
102
}
330
8CE
100
AcDbVisualStyle
  2
Realistic
 70
     8
 71
     2
 72
     3
 73
     0
 90
        2
 40
-0.6
 41
30.0
 62
     5
 63
     7
 74
     0
 91
        0
 64
     7
 65
   257
 75
     1
175
     1
 42
1.0
 92
        8
 66
   257
 43
1.0
 76
     1
 77
     6
 78
     2
 67
     7
 79
     3
170
     0
171
     0
290
     0
174
     0
 93
       13
 44
0.0
173
     0
291
     0
 45
0.0
1001
ACAD
1000
AcDbSavedByObjectVersion
1070
     0
  0
VISUALSTYLE
  5
8E3
102
{ACAD_XDICTIONARY
360
975
102
}
102
{ACAD_REACTORS
330
8CE
102
}
330
8CE
100
AcDbVisualStyle
  2
Shaded
 70
    27
 71
     2
 72
     2
 73
     1
 90
        2
 40
-0.6
 41
30.0
 62
     5
 63
     7
 74
     0
 91
        4
 64
     7
 65
   257
 75
     1
175
     1
 42
1.0
 92
        8
 66
   257
 43
1.0
 76
     1
 77
     6
 78
     2
 67
     8
 79
     3
170
     0
171
     0
290
     0
174
     0
 93
        5
 44
0.0
173
     0
291
     0
 45
0.0
1001
ACAD
1000
AcDbSavedByObjectVersion
1070
     0
  0
VISUALSTYLE
  5
8E2
102
{ACAD_XDICTIONARY
360
973
102
}
102
{ACAD_REACTORS
330
8CE
102
}
330
8CE
100
AcDbVisualStyle
  2
Shaded with edges
 70
    26
 71
     2
 72
     2
 73
     1
 90
        2
 40
-0.6
 41
30.0
 62
     5
 63
     7
 74
     1
 91
        2
 64
     7
 65
   257
 75
     2
175
     1
 42
1.0
 92
        8
 66
   257
 43
1.0
 76
     1
 77
     6
 78
     2
 67
     7
 79
     3
170
     0
171
     0
290
     0
174
     0
 93
        5
 44
0.0
173
     0
291
     0
 45
0.0
1001
ACAD
1000
AcDbSavedByObjectVersion
1070
     0
  0
VISUALSTYLE
  5
8DF
102
{ACAD_XDICTIONARY
360
96D
102
}
102
{ACAD_REACTORS
330
8CE
102
}
330
8CE
100
AcDbVisualStyle
  2
Shades of Gray
 70
    23
 71
     2
 72
     2
 73
     3
 90
        0
 40
-0.6
 41
-30.0
 62
     5
 63
     7
 74
     2
 91
        2
 64
     7
 65
     7
 75
     1
175
     1
 42
40.0
 92
        8
 66
     7
 43
1.0
 76
     1
 77
     6
 78
     2
 67
     7
 79
     3
170
     0
171
     0
290
     0
174
     0
 93
        1
 44
0.0
173
     0
291
     0
 45
0.0
1001
ACAD
1000
AcDbSavedByObjectVersion
1070
     0
  0
VISUALSTYLE
  5
8E0
102
{ACAD_XDICTIONARY
360
96F
102
}
102
{ACAD_REACTORS
330
8CE
102
}
330
8CE
100
AcDbVisualStyle
  2
Sketchy
 70
    24
 71
     1
 72
     2
 73
     2
 90
        0
 40
-0.6
 41
-30.0
 62
     5
 63
     7
 74
     2
 91
        2
 64
     7
 65
     7
 75
     1
175
     1
 42
40.0
 92
       11
 66
     7
 43
1.0
 76
     1
 77
     6
 78
     2
 67
     7
 79
     6
170
     0
171
     0
290
     0
174
     0
 93
        1
 44
0.0
173
     0
291
     0
 45
0.0
1001
ACAD
1000
AcDbSavedByObjectVersion
1070
     0
  0
VISUALSTYLE
  5
8DB
102
{ACAD_XDICTIONARY
360
965
102
}
102
{ACAD_REACTORS
330
8CE
102
}
330
8CE
100
AcDbVisualStyle
  2
Thicken
 70
    13
 71
     2
 72
     2
 73
     0
 90
        0
 40
-0.6
 41
-30.0
 62
     5
 63
     7
 74
     1
 91
        4
 64
     7
 65
   257
 75
     1
175
     1
 42
1.0
 92
       12
 66
     7
 43
1.0
 76
     1
 77
     6
 78
     2
 67
     7
 79
     5
170
     0
171
     0
290
     0
174
     0
 93
        1
 44
0.0
173
     0
291
     1
 45
0.0
1001
ACAD
1000
AcDbSavedByObjectVersion
1070
     0
  0
VISUALSTYLE
  5
8D5
102
{ACAD_XDICTIONARY
360
959
102
}
102
{ACAD_REACTORS
330
8CE
102
}
330
8CE
100
AcDbVisualStyle
  2
Wireframe
 70
     5
 71
     0
 72
     2
 73
     0
 90
        0
 40
-0.6
 41
-30.0
 62
     5
 63
     7
 74
     1
 91
        4
 64
     7
 65
   257
 75
     1
175
     1
 42
1.0
 92
        0
 66
   257
 43
1.0
 76
     1
 77
     6
 78
     2
 67
     7
 79
     3
170
     0
171
     0
290
     0
174
     0
 93
        1
 44
0.0
173
     0
291
     0
 45
0.0
1001
ACAD
1000
AcDbSavedByObjectVersion
1070
     0
  0
VISUALSTYLE
  5
8E1
102
{ACAD_XDICTIONARY
360
971
102
}
102
{ACAD_REACTORS
330
8CE
102
}
330
8CE
100
AcDbVisualStyle
  2
X-Ray
 70
    25
 71
     2
 72
     2
 73
     1
 90
        1
 40
0.5
 41
-30.0
 62
     5
 63
     7
 74
     1
 91
        0
 64
     7
 65
   257
 75
     1
175
     1
 42
1.0
 92
        8
 66
     7
 43
1.0
 76
     1
 77
     6
 78
     2
 67
     7
 79
     3
170
     0
171
     0
290
     0
174
     0
 93
       13
 44
0.0
173
     0
291
     0
 45
0.0
1001
ACAD
1000
AcDbSavedByObjectVersion
1070
     0
  0
DICTIONARYVAR
  5
940
102
{ACAD_REACTORS
330
93B
102
}
330
93B
100
DictionaryVariables
280
     0
  1
1:1
  0
DICTIONARYVAR
  5
93D
102
{ACAD_REACTORS
330
93B
102
}
330
93B
100
DictionaryVariables
280
     0
  1
STANDARD
  0
DICTIONARYVAR
  5
93C
102
{ACAD_REACTORS
330
93B
102
}
330
93B
100
DictionaryVariables
280
     0
  1
STANDARD
  0
DICTIONARYVAR
  5
93E
102
{ACAD_REACTORS
330
93B
102
}
330
93B
100
DictionaryVariables
280
     0
  1
Imperial24
  0
DICTIONARYVAR
  5
93F
102
{ACAD_REACTORS
330
93B
102
}
330
93B
100
DictionaryVariables
280
     0
  1
Imperial24
  0
DICTIONARYVAR
  5
943
102
{ACAD_REACTORS
330
93B
102
}
330
93B
100
DictionaryVariables
280
     0
  1
1
  0
DICTIONARYVAR
  5
942
102
{ACAD_REACTORS
330
93B
102
}
330
93B
100
DictionaryVariables
280
     0
  1
0
  0
DICTIONARYVAR
  5
941
102
{ACAD_REACTORS
330
93B
102
}
330
93B
100
DictionaryVariables
280
     0
  1
127
  0
DICTIONARYVAR
  5
944
102
{ACAD_REACTORS
330
93B
102
}
330
93B
100
DictionaryVariables
280
     0
  1
2
  0
DICTIONARY
  5
981
330
90F
100
AcDbDictionary
280
     1
281
     1
  3
ACAD_XREC_ROUNDTRIP
360
982
  0
DICTIONARY
  5
985
330
917
100
AcDbDictionary
280
     1
281
     1
  3
ACAD_XREC_ROUNDTRIP
360
986
  0
DICTIONARY
  5
983
330
913
100
AcDbDictionary
280
     1
281
     1
  3
ACAD_XREC_ROUNDTRIP
360
984
  0
DICTIONARY
  5
8BF
330
8BE
100
AcDbDictionary
280
     1
281
     1
  3
ACAD_XREC_ROUNDTRIP
360
94B
  3
BUMPTILE
360
8C1
  3
DIFFUSETILE
360
8C0
  3
OPACITYTILE
360
8C4
  3
REFLECTIONTILE
360
8C3
  3
REFRACTIONTILE
360
8C5
  3
SPECULARTILE
360
8C2
  0
DICTIONARY
  5
8B7
330
8B6
100
AcDbDictionary
280
     1
281
     1
  3
ACAD_XREC_ROUNDTRIP
360
94A
  3
BUMPTILE
360
8B9
  3
DIFFUSETILE
360
8B8
  3
OPACITYTILE
360
8BC
  3
REFLECTIONTILE
360
8BB
  3
REFRACTIONTILE
360
8BD
  3
SPECULARTILE
360
8BA
  0
DICTIONARY
  5
8C7
330
8C6
100
AcDbDictionary
280
     1
281
     1
  3
ACAD_XREC_ROUNDTRIP
360
94C
  3
BUMPTILE
360
8C9
  3
DIFFUSETILE
360
8C8
  3
OPACITYTILE
360
8CC
  3
REFLECTIONTILE
360
8CB
  3
REFRACTIONTILE
360
8CD
  3
SPECULARTILE
360
8CA
  0
DICTIONARY
  5
97F
330
90D
100
AcDbDictionary
280
     1
281
     1
  3
ACAD_XREC_ROUNDTRIP
360
980
  0
DICTIONARY
  5
946
330
909
100
AcDbDictionary
280
     1
281
     1
  3
ACAD_ROUNDTRIP_2008_TABLESTYLE_CELLSTYLEMAP
360
947
  3
ACAD_XREC_ROUNDTRIP
360
97D
  0
DICTIONARY
  5
957
330
8D4
100
AcDbDictionary
280
     1
281
     1
  3
ACAD_XREC_ROUNDTRIP
360
958
  0
DICTIONARY
  5
955
330
8D3
100
AcDbDictionary
280
     1
281
     1
  3
ACAD_XREC_ROUNDTRIP
360
956
  0
DICTIONARY
  5
963
330
8DA
100
AcDbDictionary
280
     1
281
     1
  3
ACAD_XREC_ROUNDTRIP
360
964
  0
DICTIONARY
  5
96B
330
8DE
100
AcDbDictionary
280
     1
281
     1
  3
ACAD_XREC_ROUNDTRIP
360
96C
  0
DICTIONARY
  5
95D
330
8D7
100
AcDbDictionary
280
     1
281
     1
  3
ACAD_XREC_ROUNDTRIP
360
95E
  0
DICTIONARY
  5
961
330
8D9
100
AcDbDictionary
280
     1
281
     1
  3
ACAD_XREC_ROUNDTRIP
360
962
  0
DICTIONARY
  5
97B
330
8E6
100
AcDbDictionary
280
     1
281
     1
  3
ACAD_XREC_ROUNDTRIP
360
97C
  0
DICTIONARY
  5
969
330
8DD
100
AcDbDictionary
280
     1
281
     1
  3
ACAD_XREC_ROUNDTRIP
360
96A
  0
DICTIONARY
  5
94D
330
8CF
100
AcDbDictionary
280
     1
281
     1
  3
ACAD_XREC_ROUNDTRIP
360
94E
  0
DICTIONARY
  5
94F
330
8D0
100
AcDbDictionary
280
     1
281
     1
  3
ACAD_XREC_ROUNDTRIP
360
950
  0
DICTIONARY
  5
951
330
8D1
100
AcDbDictionary
280
     1
281
     1
  3
ACAD_XREC_ROUNDTRIP
360
952
  0
DICTIONARY
  5
953
330
8D2
100
AcDbDictionary
280
     1
281
     1
  3
ACAD_XREC_ROUNDTRIP
360
954
  0
DICTIONARY
  5
95B
330
8D6
100
AcDbDictionary
280
     1
281
     1
  3
ACAD_XREC_ROUNDTRIP
360
95C
  0
DICTIONARY
  5
977
330
8E4
100
AcDbDictionary
280
     1
281
     1
  3
ACAD_XREC_ROUNDTRIP
360
978
  0
DICTIONARY
  5
967
330
8DC
100
AcDbDictionary
280
     1
281
     1
  3
ACAD_XREC_ROUNDTRIP
360
968
  0
DICTIONARY
  5
979
330
8E5
100
AcDbDictionary
280
     1
281
     1
  3
ACAD_XREC_ROUNDTRIP
360
97A
  0
DICTIONARY
  5
95F
330
8D8
100
AcDbDictionary
280
     1
281
     1
  3
ACAD_XREC_ROUNDTRIP
360
960
  0
DICTIONARY
  5
975
330
8E3
100
AcDbDictionary
280
     1
281
     1
  3
ACAD_XREC_ROUNDTRIP
360
976
  0
DICTIONARY
  5
973
330
8E2
100
AcDbDictionary
280
     1
281
     1
  3
ACAD_XREC_ROUNDTRIP
360
974
  0
DICTIONARY
  5
96D
330
8DF
100
AcDbDictionary
280
     1
281
     1
  3
ACAD_XREC_ROUNDTRIP
360
96E
  0
DICTIONARY
  5
96F
330
8E0
100
AcDbDictionary
280
     1
281
     1
  3
ACAD_XREC_ROUNDTRIP
360
970
  0
DICTIONARY
  5
965
330
8DB
100
AcDbDictionary
280
     1
281
     1
  3
ACAD_XREC_ROUNDTRIP
360
966
  0
DICTIONARY
  5
959
330
8D5
100
AcDbDictionary
280
     1
281
     1
  3
ACAD_XREC_ROUNDTRIP
360
95A
  0
DICTIONARY
  5
971
330
8E1
100
AcDbDictionary
280
     1
281
     1
  3
ACAD_XREC_ROUNDTRIP
360
972
  0
XRECORD
  5
982
102
{ACAD_REACTORS
330
981
102
}
330
981
100
AcDbXrecord
280
     1
102
DISPLAYNAME
  1
Imperial24
102
FLAGS
 90
        0
  0
XRECORD
  5
986
102
{ACAD_REACTORS
330
985
102
}
330
985
100
AcDbXrecord
280
     1
102
SHADEPLOT
 70
     0
102
SHADEPLOTRESLEVEL
 70
     2
102
SHADEPLOTCUSTOMDPI
 70
   300
  0
XRECORD
  5
984
102
{ACAD_REACTORS
330
983
102
}
330
983
100
AcDbXrecord
280
     1
102
SHADEPLOT
 70
     0
102
SHADEPLOTRESLEVEL
 70
     2
102
SHADEPLOTCUSTOMDPI
 70
   300
  0
XRECORD
  5
94B
102
{ACAD_REACTORS
330
8BF
102
}
330
8BF
100
AcDbXrecord
280
     1
102
MATERIAL
148
0.0
149
0.0
149
0.0
 93
        0
 94
      127
282
     0
 72
     0
 77
     0
171
     0
175
     0
179
     0
273
     0
  0
XRECORD
  5
8C1
102
{ACAD_REACTORS
330
8BF
102
}
330
8BF
100
AcDbXrecord
280
     1
270
     1
271
     1
  0
XRECORD
  5
8C0
102
{ACAD_REACTORS
330
8BF
102
}
330
8BF
100
AcDbXrecord
280
     1
270
     1
271
     1
  0
XRECORD
  5
8C4
102
{ACAD_REACTORS
330
8BF
102
}
330
8BF
100
AcDbXrecord
280
     1
270
     1
271
     1
  0
XRECORD
  5
8C3
102
{ACAD_REACTORS
330
8BF
102
}
330
8BF
100
AcDbXrecord
280
     1
270
     1
271
     1
  0
XRECORD
  5
8C5
102
{ACAD_REACTORS
330
8BF
102
}
330
8BF
100
AcDbXrecord
280
     1
270
     1
271
     1
  0
XRECORD
  5
8C2
102
{ACAD_REACTORS
330
8BF
102
}
330
8BF
100
AcDbXrecord
280
     1
270
     1
271
     1
  0
XRECORD
  5
94A
102
{ACAD_REACTORS
330
8B7
102
}
330
8B7
100
AcDbXrecord
280
     1
102
MATERIAL
148
0.0
149
0.0
149
0.0
 93
        0
 94
      127
282
     0
 72
     0
 77
     0
171
     0
175
     0
179
     0
273
     0
  0
XRECORD
  5
8B9
102
{ACAD_REACTORS
330
8B7
102
}
330
8B7
100
AcDbXrecord
280
     1
270
     1
271
     1
  0
XRECORD
  5
8B8
102
{ACAD_REACTORS
330
8B7
102
}
330
8B7
100
AcDbXrecord
280
     1
270
     1
271
     1
  0
XRECORD
  5
8BC
102
{ACAD_REACTORS
330
8B7
102
}
330
8B7
100
AcDbXrecord
280
     1
270
     1
271
     1
  0
XRECORD
  5
8BB
102
{ACAD_REACTORS
330
8B7
102
}
330
8B7
100
AcDbXrecord
280
     1
270
     1
271
     1
  0
XRECORD
  5
8BD
102
{ACAD_REACTORS
330
8B7
102
}
330
8B7
100
AcDbXrecord
280
     1
270
     1
271
     1
  0
XRECORD
  5
8BA
102
{ACAD_REACTORS
330
8B7
102
}
330
8B7
100
AcDbXrecord
280
     1
270
     1
271
     1
  0
XRECORD
  5
94C
102
{ACAD_REACTORS
330
8C7
102
}
330
8C7
100
AcDbXrecord
280
     1
102
MATERIAL
148
0.0
149
0.0
149
0.0
 93
        0
 94
      127
282
     0
 72
     0
 77
     0
171
     0
175
     0
179
     0
273
     0
  0
XRECORD
  5
8C9
102
{ACAD_REACTORS
330
8C7
102
}
330
8C7
100
AcDbXrecord
280
     1
270
     1
271
     1
  0
XRECORD
  5
8C8
102
{ACAD_REACTORS
330
8C7
102
}
330
8C7
100
AcDbXrecord
280
     1
270
     1
271
     1
  0
XRECORD
  5
8CC
102
{ACAD_REACTORS
330
8C7
102
}
330
8C7
100
AcDbXrecord
280
     1
270
     1
271
     1
  0
XRECORD
  5
8CB
102
{ACAD_REACTORS
330
8C7
102
}
330
8C7
100
AcDbXrecord
280
     1
270
     1
271
     1
  0
XRECORD
  5
8CD
102
{ACAD_REACTORS
330
8C7
102
}
330
8C7
100
AcDbXrecord
280
     1
270
     1
271
     1
  0
XRECORD
  5
8CA
102
{ACAD_REACTORS
330
8C7
102
}
330
8C7
100
AcDbXrecord
280
     1
270
     1
271
     1
  0
XRECORD
  5
980
102
{ACAD_REACTORS
330
97F
102
}
330
97F
100
AcDbXrecord
280
     1
102
DISPLAYNAME
  1
Imperial24
102
FLAGS
 90
        0
  0
CELLSTYLEMAP
  5
947
102
{ACAD_REACTORS
330
946
102
}
330
946
100
AcDbCellStyleMap
 90
        3
300
CELLSTYLE
  1
TABLEFORMAT_BEGIN
 90
        5
170
     1
 91
        0
 92
    32768
 62
   257
 93
        1
300
CONTENTFORMAT
  1
CONTENTFORMAT_BEGIN
 90
        0
 91
        0
 92
      512
 93
        0
300

 40
0.0
140
1.0
 94
        5
 62
     0
340
8FA
144
0.25
309
CONTENTFORMAT_END
171
     0
 94
        0
309
TABLEFORMAT_END
  1
CELLSTYLE_BEGIN
 90
        1
 91
        1
300
_TITLE
309
CELLSTYLE_END
300
CELLSTYLE
  1
TABLEFORMAT_BEGIN
 90
        5
170
     1
 91
        0
 92
        0
 62
   257
 93
        1
300
CONTENTFORMAT
  1
CONTENTFORMAT_BEGIN
 90
        0
 91
        0
 92
      512
 93
        0
300

 40
0.0
140
1.0
 94
        5
 62
     0
340
8FA
144
0.18
309
CONTENTFORMAT_END
171
     0
 94
        0
309
TABLEFORMAT_END
  1
CELLSTYLE_BEGIN
 90
        2
 91
        1
300
_HEADER
309
CELLSTYLE_END
300
CELLSTYLE
  1
TABLEFORMAT_BEGIN
 90
        5
170
     1
 91
        0
 92
        0
 62
   257
 93
        1
300
CONTENTFORMAT
  1
CONTENTFORMAT_BEGIN
 90
        0
 91
        0
 92
      512
 93
        0
300

 40
0.0
140
1.0
 94
        2
 62
     0
340
8FA
144
0.18
309
CONTENTFORMAT_END
171
     0
 94
        0
309
TABLEFORMAT_END
  1
CELLSTYLE_BEGIN
 90
        3
 91
        2
300
_DATA
309
CELLSTYLE_END
  0
XRECORD
  5
97D
102
{ACAD_REACTORS
330
946
102
}
330
946
100
AcDbXrecord
280
     1
102
ACAD_ROUNDTRIP_PRE2007_TABLESTYLE
 90
      512
 91
        0
  1

 92
      512
 93
        0
  2

 94
      512
 95
        0
  3

  0
XRECORD
  5
958
102
{ACAD_REACTORS
330
957
102
}
330
957
100
AcDbXrecord
280
     1
102
RTVSPost2010Prop28
280
     1
102
RTVSPost2010PropOp28
 70
     1
102
RTVSPost2010Prop29
280
     1
102
RTVSPost2010PropOp29
 70
     1
102
RTVSPost2010Prop30
280
     0
102
RTVSPost2010PropOp30
 70
     1
102
RTVSPost2010Prop31
280
     0
102
RTVSPost2010PropOp31
 70
     1
102
RTVSPost2010Prop32
280
     0
102
RTVSPost2010PropOp32
 70
     1
102
RTVSPost2010Prop33
280
     0
102
RTVSPost2010PropOp33
 70
     1
102
RTVSPost2010Prop34
280
     0
102
RTVSPost2010PropOp34
 70
     1
102
RTVSPost2010Prop35
280
     0
102
RTVSPost2010PropOp35
 70
     1
102
RTVSPost2010Prop36
280
     0
102
RTVSPost2010PropOp36
 70
     1
102
RTVSPost2010Prop37
 90
       50
102
RTVSPost2010PropOp37
 70
     1
102
RTVSPost2010Prop38
140
0.0
102
RTVSPost2010PropOp38
 70
     1
102
RTVSPost2010Prop39
140
1.0
102
RTVSPost2010PropOp39
 70
     1
102
RTVSPost2010Prop40
 90
        0
102
RTVSPost2010PropOp40
 70
     1
102
RTVSPost2010Prop41ColorIndex
 90
       18
102
RTVSPost2010Prop41ColorRGB
 90
        0
102
RTVSPost2010PropOp41
 70
     1
102
RTVSPost2010Prop42
 90
       50
102
RTVSPost2010PropOp42
 70
     1
102
RTVSPost2010Prop43
 90
        3
102
RTVSPost2010PropOp43
 70
     1
102
RTVSPost2010Prop44ColorIndex
 90
        5
102
RTVSPost2010Prop44ColorRGB
 90
      255
102
RTVSPost2010PropOp44
 70
     1
102
RTVSPost2010Prop45
280
     0
102
RTVSPost2010PropOp45
 70
     1
102
RTVSPost2010Prop46
 90
       50
102
RTVSPost2010PropOp46
 70
     1
102
RTVSPost2010Prop47
 90
       50
102
RTVSPost2010PropOp47
 70
     1
102
RTVSPost2010Prop48
 90
       50
102
RTVSPost2010PropOp48
 70
     1
102
RTVSPost2010Prop49
280
     0
102
RTVSPost2010PropOp49
 70
     1
102
RTVSPost2010Prop50
 90
       50
102
RTVSPost2010PropOp50
 70
     1
102
RTVSPost2010Prop51ColorIndex
 90
      256
102
RTVSPost2010Prop51ColorRGB
 90
-16777216
102
RTVSPost2010PropOp51
 70
     0
102
RTVSPost2010Prop52
140
1.0
102
RTVSPost2010PropOp52
 70
     0
102
RTVSPost2010Prop53
 90
        2
102
RTVSPost2010PropOp53
 70
     1
102
RTVSPost2010Prop54
  1
strokes_ogs.tif
102
RTVSPost2010PropOp54
 70
     1
102
RTVSPost2010Prop55
280
     0
102
RTVSPost2010PropOp55
 70
     1
102
RTVSPost2010Prop56
140
1.0
102
RTVSPost2010PropOp56
 70
     1
102
RTVSPost2010Prop57
140
1.0
102
RTVSPost2010PropOp57
 70
     1
102
RTVSPropertyOp0
 70
     1
102
RTVSPropertyOp1
 70
     1
102
RTVSPropertyOp2
 70
     1
102
RTVSPropertyOp3
 70
     1
102
RTVSPropertyOp4
 70
     1
102
RTVSPropertyOp5
 70
     1
102
RTVSPropertyOp6
 70
     1
102
RTVSPropertyOp7
 70
     1
102
RTVSPropertyOp8
 70
     1
102
RTVSPropertyOp9
 70
     1
102
RTVSPropertyOp10
 70
     1
102
RTVSPropertyOp11
 70
     1
102
RTVSPropertyOp12
 70
     1
102
RTVSPropertyOp13
 70
     1
102
RTVSPropertyOp14
 70
     1
102
RTVSPropertyOp15
 70
     1
102
RTVSPropertyOp16
 70
     1
102
RTVSPropertyOp17
 70
     1
102
RTVSPropertyOp18
 70
     1
102
RTVSPropertyOp19
 70
     1
102
RTVSPropertyOp20
 70
     1
102
RTVSPropertyOp21
 70
     1
102
RTVSPropertyOp22
 70
     1
102
RTVSPropertyOp23
 70
     1
102
RTVSPropertyOp24
 70
     1
102
RTVSPropertyOp25
 70
     1
102
RTVSPropertyOp26
 70
     1
102
RTVSPropertyOp27
 70
     1
102
RTVSPropertyOp28
 70
     1
102
RTVSPropertyOp29
 70
     1
102
RTVSPropertyOp30
 70
     1
102
RTVSPropertyOp31
 70
     1
102
RTVSPropertyOp32
 70
     1
102
RTVSPropertyOp33
 70
     1
102
RTVSPropertyOp34
 70
     1
102
RTVSPropertyOp35
 70
     1
102
RTVSPropertyOp36
 70
     1
102
RTVSPropertyOp37
 70
     1
102
RTVSPropertyOp38
 70
     1
102
RTVSPropertyOp39
 70
     1
102
RTVSPropertyOp40
 70
     1
102
RTVSPropertyOp41
 70
     1
102
RTVSPropertyOp42
 70
     1
102
RTVSPropertyOp43
 70
     1
102
RTVSPropertyOp44
 70
     1
102
RTVSPropertyOp45
 70
     1
102
RTVSPropertyOp46
 70
     1
102
RTVSPropertyOp47
 70
     1
102
RTVSPropertyOp48
 70
     1
102
RTVSPropertyOp49
 70
     1
102
RTVSPropertyOp50
 70
     1
102
RTVSPropertyOp51
 70
     0
102
RTVSPropertyOp52
 70
     0
102
RTVSPropertyOp53
 70
     1
102
RTVSPropertyOp54
 70
     1
102
RTVSPropertyOp55
 70
     1
102
RTVSPropertyOp56
 70
     1
102
RTVSPropertyOp57
 70
     1
102
RTVSPropertyOp58
 70
     1
102
RTVSPropertyOp59
 70
     1
102
RTVSPropertyOp60
 70
     1
102
RTVSPropertyOp61
 70
     1
102
RTVSPropertyOp62
 70
     1
  0
XRECORD
  5
956
102
{ACAD_REACTORS
330
955
102
}
330
955
100
AcDbXrecord
280
     1
102
RTVSPost2010Prop28
280
     0
102
RTVSPost2010PropOp28
 70
     1
102
RTVSPost2010Prop29
280
     1
102
RTVSPost2010PropOp29
 70
     1
102
RTVSPost2010Prop30
280
     1
102
RTVSPost2010PropOp30
 70
     1
102
RTVSPost2010Prop31
280
     0
102
RTVSPost2010PropOp31
 70
     1
102
RTVSPost2010Prop32
280
     0
102
RTVSPost2010PropOp32
 70
     1
102
RTVSPost2010Prop33
280
     0
102
RTVSPost2010PropOp33
 70
     1
102
RTVSPost2010Prop34
280
     0
102
RTVSPost2010PropOp34
 70
     1
102
RTVSPost2010Prop35
280
     0
102
RTVSPost2010PropOp35
 70
     1
102
RTVSPost2010Prop36
280
     0
102
RTVSPost2010PropOp36
 70
     1
102
RTVSPost2010Prop37
 90
       50
102
RTVSPost2010PropOp37
 70
     1
102
RTVSPost2010Prop38
140
0.0
102
RTVSPost2010PropOp38
 70
     1
102
RTVSPost2010Prop39
140
1.0
102
RTVSPost2010PropOp39
 70
     1
102
RTVSPost2010Prop40
 90
        0
102
RTVSPost2010PropOp40
 70
     1
102
RTVSPost2010Prop41ColorIndex
 90
       18
102
RTVSPost2010Prop41ColorRGB
 90
        0
102
RTVSPost2010PropOp41
 70
     1
102
RTVSPost2010Prop42
 90
       50
102
RTVSPost2010PropOp42
 70
     1
102
RTVSPost2010Prop43
 90
        3
102
RTVSPost2010PropOp43
 70
     1
102
RTVSPost2010Prop44ColorIndex
 90
        5
102
RTVSPost2010Prop44ColorRGB
 90
      255
102
RTVSPost2010PropOp44
 70
     1
102
RTVSPost2010Prop45
280
     0
102
RTVSPost2010PropOp45
 70
     1
102
RTVSPost2010Prop46
 90
       50
102
RTVSPost2010PropOp46
 70
     1
102
RTVSPost2010Prop47
 90
       50
102
RTVSPost2010PropOp47
 70
     1
102
RTVSPost2010Prop48
 90
       50
102
RTVSPost2010PropOp48
 70
     1
102
RTVSPost2010Prop49
280
     0
102
RTVSPost2010PropOp49
 70
     1
102
RTVSPost2010Prop50
 90
       50
102
RTVSPost2010PropOp50
 70
     1
102
RTVSPost2010Prop51ColorIndex
 90
      256
102
RTVSPost2010Prop51ColorRGB
 90
-16777216
102
RTVSPost2010PropOp51
 70
     0
102
RTVSPost2010Prop52
140
1.0
102
RTVSPost2010PropOp52
 70
     0
102
RTVSPost2010Prop53
 90
        2
102
RTVSPost2010PropOp53
 70
     1
102
RTVSPost2010Prop54
  1
strokes_ogs.tif
102
RTVSPost2010PropOp54
 70
     1
102
RTVSPost2010Prop55
280
     0
102
RTVSPost2010PropOp55
 70
     1
102
RTVSPost2010Prop56
140
1.0
102
RTVSPost2010PropOp56
 70
     1
102
RTVSPost2010Prop57
140
1.0
102
RTVSPost2010PropOp57
 70
     1
102
RTVSPropertyOp0
 70
     1
102
RTVSPropertyOp1
 70
     1
102
RTVSPropertyOp2
 70
     1
102
RTVSPropertyOp3
 70
     1
102
RTVSPropertyOp4
 70
     1
102
RTVSPropertyOp5
 70
     1
102
RTVSPropertyOp6
 70
     1
102
RTVSPropertyOp7
 70
     1
102
RTVSPropertyOp8
 70
     1
102
RTVSPropertyOp9
 70
     1
102
RTVSPropertyOp10
 70
     1
102
RTVSPropertyOp11
 70
     1
102
RTVSPropertyOp12
 70
     1
102
RTVSPropertyOp13
 70
     1
102
RTVSPropertyOp14
 70
     1
102
RTVSPropertyOp15
 70
     1
102
RTVSPropertyOp16
 70
     1
102
RTVSPropertyOp17
 70
     1
102
RTVSPropertyOp18
 70
     1
102
RTVSPropertyOp19
 70
     1
102
RTVSPropertyOp20
 70
     1
102
RTVSPropertyOp21
 70
     1
102
RTVSPropertyOp22
 70
     1
102
RTVSPropertyOp23
 70
     1
102
RTVSPropertyOp24
 70
     1
102
RTVSPropertyOp25
 70
     1
102
RTVSPropertyOp26
 70
     1
102
RTVSPropertyOp27
 70
     1
102
RTVSPropertyOp28
 70
     1
102
RTVSPropertyOp29
 70
     1
102
RTVSPropertyOp30
 70
     1
102
RTVSPropertyOp31
 70
     1
102
RTVSPropertyOp32
 70
     1
102
RTVSPropertyOp33
 70
     1
102
RTVSPropertyOp34
 70
     1
102
RTVSPropertyOp35
 70
     1
102
RTVSPropertyOp36
 70
     1
102
RTVSPropertyOp37
 70
     1
102
RTVSPropertyOp38
 70
     1
102
RTVSPropertyOp39
 70
     1
102
RTVSPropertyOp40
 70
     1
102
RTVSPropertyOp41
 70
     1
102
RTVSPropertyOp42
 70
     1
102
RTVSPropertyOp43
 70
     1
102
RTVSPropertyOp44
 70
     1
102
RTVSPropertyOp45
 70
     1
102
RTVSPropertyOp46
 70
     1
102
RTVSPropertyOp47
 70
     1
102
RTVSPropertyOp48
 70
     1
102
RTVSPropertyOp49
 70
     1
102
RTVSPropertyOp50
 70
     1
102
RTVSPropertyOp51
 70
     0
102
RTVSPropertyOp52
 70
     0
102
RTVSPropertyOp53
 70
     1
102
RTVSPropertyOp54
 70
     1
102
RTVSPropertyOp55
 70
     1
102
RTVSPropertyOp56
 70
     1
102
RTVSPropertyOp57
 70
     1
102
RTVSPropertyOp58
 70
     1
102
RTVSPropertyOp59
 70
     1
102
RTVSPropertyOp60
 70
     1
102
RTVSPropertyOp61
 70
     1
102
RTVSPropertyOp62
 70
     1
  0
XRECORD
  5
964
102
{ACAD_REACTORS
330
963
102
}
330
963
100
AcDbXrecord
280
     1
102
RTVSPost2010Prop28
280
     0
102
RTVSPost2010PropOp28
 70
     1
102
RTVSPost2010Prop29
280
     1
102
RTVSPost2010PropOp29
 70
     1
102
RTVSPost2010Prop30
280
     1
102
RTVSPost2010PropOp30
 70
     1
102
RTVSPost2010Prop31
280
     0
102
RTVSPost2010PropOp31
 70
     1
102
RTVSPost2010Prop32
280
     0
102
RTVSPost2010PropOp32
 70
     1
102
RTVSPost2010Prop33
280
     0
102
RTVSPost2010PropOp33
 70
     1
102
RTVSPost2010Prop34
280
     0
102
RTVSPost2010PropOp34
 70
     1
102
RTVSPost2010Prop35
280
     0
102
RTVSPost2010PropOp35
 70
     1
102
RTVSPost2010Prop36
280
     0
102
RTVSPost2010PropOp36
 70
     1
102
RTVSPost2010Prop37
 90
       50
102
RTVSPost2010PropOp37
 70
     1
102
RTVSPost2010Prop38
140
0.0
102
RTVSPost2010PropOp38
 70
     1
102
RTVSPost2010Prop39
140
1.0
102
RTVSPost2010PropOp39
 70
     1
102
RTVSPost2010Prop40
 90
        0
102
RTVSPost2010PropOp40
 70
     1
102
RTVSPost2010Prop41ColorIndex
 90
       18
102
RTVSPost2010Prop41ColorRGB
 90
        0
102
RTVSPost2010PropOp41
 70
     1
102
RTVSPost2010Prop42
 90
       50
102
RTVSPost2010PropOp42
 70
     1
102
RTVSPost2010Prop43
 90
        3
102
RTVSPost2010PropOp43
 70
     1
102
RTVSPost2010Prop44ColorIndex
 90
        5
102
RTVSPost2010Prop44ColorRGB
 90
      255
102
RTVSPost2010PropOp44
 70
     1
102
RTVSPost2010Prop45
280
     0
102
RTVSPost2010PropOp45
 70
     1
102
RTVSPost2010Prop46
 90
       50
102
RTVSPost2010PropOp46
 70
     1
102
RTVSPost2010Prop47
 90
       50
102
RTVSPost2010PropOp47
 70
     1
102
RTVSPost2010Prop48
 90
       50
102
RTVSPost2010PropOp48
 70
     1
102
RTVSPost2010Prop49
280
     0
102
RTVSPost2010PropOp49
 70
     1
102
RTVSPost2010Prop50
 90
       50
102
RTVSPost2010PropOp50
 70
     1
102
RTVSPost2010Prop51ColorIndex
 90
      256
102
RTVSPost2010Prop51ColorRGB
 90
-16777216
102
RTVSPost2010PropOp51
 70
     0
102
RTVSPost2010Prop52
140
1.0
102
RTVSPost2010PropOp52
 70
     0
102
RTVSPost2010Prop53
 90
        2
102
RTVSPost2010PropOp53
 70
     1
102
RTVSPost2010Prop54
  1
strokes_ogs.tif
102
RTVSPost2010PropOp54
 70
     1
102
RTVSPost2010Prop55
280
     0
102
RTVSPost2010PropOp55
 70
     1
102
RTVSPost2010Prop56
140
1.0
102
RTVSPost2010PropOp56
 70
     1
102
RTVSPost2010Prop57
140
1.0
102
RTVSPost2010PropOp57
 70
     1
102
RTVSPropertyOp0
 70
     1
102
RTVSPropertyOp1
 70
     1
102
RTVSPropertyOp2
 70
     1
102
RTVSPropertyOp3
 70
     1
102
RTVSPropertyOp4
 70
     1
102
RTVSPropertyOp5
 70
     1
102
RTVSPropertyOp6
 70
     1
102
RTVSPropertyOp7
 70
     1
102
RTVSPropertyOp8
 70
     1
102
RTVSPropertyOp9
 70
     1
102
RTVSPropertyOp10
 70
     1
102
RTVSPropertyOp11
 70
     1
102
RTVSPropertyOp12
 70
     1
102
RTVSPropertyOp13
 70
     1
102
RTVSPropertyOp14
 70
     1
102
RTVSPropertyOp15
 70
     1
102
RTVSPropertyOp16
 70
     1
102
RTVSPropertyOp17
 70
     1
102
RTVSPropertyOp18
 70
     1
102
RTVSPropertyOp19
 70
     1
102
RTVSPropertyOp20
 70
     1
102
RTVSPropertyOp21
 70
     1
102
RTVSPropertyOp22
 70
     1
102
RTVSPropertyOp23
 70
     1
102
RTVSPropertyOp24
 70
     1
102
RTVSPropertyOp25
 70
     1
102
RTVSPropertyOp26
 70
     1
102
RTVSPropertyOp27
 70
     1
102
RTVSPropertyOp28
 70
     1
102
RTVSPropertyOp29
 70
     1
102
RTVSPropertyOp30
 70
     1
102
RTVSPropertyOp31
 70
     1
102
RTVSPropertyOp32
 70
     1
102
RTVSPropertyOp33
 70
     1
102
RTVSPropertyOp34
 70
     1
102
RTVSPropertyOp35
 70
     1
102
RTVSPropertyOp36
 70
     1
102
RTVSPropertyOp37
 70
     1
102
RTVSPropertyOp38
 70
     1
102
RTVSPropertyOp39
 70
     1
102
RTVSPropertyOp40
 70
     1
102
RTVSPropertyOp41
 70
     1
102
RTVSPropertyOp42
 70
     1
102
RTVSPropertyOp43
 70
     1
102
RTVSPropertyOp44
 70
     1
102
RTVSPropertyOp45
 70
     1
102
RTVSPropertyOp46
 70
     1
102
RTVSPropertyOp47
 70
     1
102
RTVSPropertyOp48
 70
     1
102
RTVSPropertyOp49
 70
     1
102
RTVSPropertyOp50
 70
     1
102
RTVSPropertyOp51
 70
     0
102
RTVSPropertyOp52
 70
     0
102
RTVSPropertyOp53
 70
     1
102
RTVSPropertyOp54
 70
     1
102
RTVSPropertyOp55
 70
     1
102
RTVSPropertyOp56
 70
     1
102
RTVSPropertyOp57
 70
     1
102
RTVSPropertyOp58
 70
     1
102
RTVSPropertyOp59
 70
     1
102
RTVSPropertyOp60
 70
     1
102
RTVSPropertyOp61
 70
     1
102
RTVSPropertyOp62
 70
     1
  0
XRECORD
  5
96C
102
{ACAD_REACTORS
330
96B
102
}
330
96B
100
AcDbXrecord
280
     1
102
RTVSPost2010Prop28
280
     0
102
RTVSPost2010PropOp28
 70
     1
102
RTVSPost2010Prop29
280
     1
102
RTVSPost2010PropOp29
 70
     1
102
RTVSPost2010Prop30
280
     1
102
RTVSPost2010PropOp30
 70
     1
102
RTVSPost2010Prop31
280
     0
102
RTVSPost2010PropOp31
 70
     1
102
RTVSPost2010Prop32
280
     0
102
RTVSPost2010PropOp32
 70
     1
102
RTVSPost2010Prop33
280
     0
102
RTVSPost2010PropOp33
 70
     1
102
RTVSPost2010Prop34
280
     0
102
RTVSPost2010PropOp34
 70
     1
102
RTVSPost2010Prop35
280
     0
102
RTVSPost2010PropOp35
 70
     1
102
RTVSPost2010Prop36
280
     0
102
RTVSPost2010PropOp36
 70
     1
102
RTVSPost2010Prop37
 90
       50
102
RTVSPost2010PropOp37
 70
     1
102
RTVSPost2010Prop38
140
0.0
102
RTVSPost2010PropOp38
 70
     1
102
RTVSPost2010Prop39
140
1.0
102
RTVSPost2010PropOp39
 70
     1
102
RTVSPost2010Prop40
 90
        0
102
RTVSPost2010PropOp40
 70
     1
102
RTVSPost2010Prop41ColorIndex
 90
       18
102
RTVSPost2010Prop41ColorRGB
 90
        0
102
RTVSPost2010PropOp41
 70
     1
102
RTVSPost2010Prop42
 90
       50
102
RTVSPost2010PropOp42
 70
     1
102
RTVSPost2010Prop43
 90
        3
102
RTVSPost2010PropOp43
 70
     1
102
RTVSPost2010Prop44ColorIndex
 90
        5
102
RTVSPost2010Prop44ColorRGB
 90
      255
102
RTVSPost2010PropOp44
 70
     1
102
RTVSPost2010Prop45
280
     0
102
RTVSPost2010PropOp45
 70
     1
102
RTVSPost2010Prop46
 90
       50
102
RTVSPost2010PropOp46
 70
     1
102
RTVSPost2010Prop47
 90
       50
102
RTVSPost2010PropOp47
 70
     1
102
RTVSPost2010Prop48
 90
       50
102
RTVSPost2010PropOp48
 70
     1
102
RTVSPost2010Prop49
280
     0
102
RTVSPost2010PropOp49
 70
     1
102
RTVSPost2010Prop50
 90
       50
102
RTVSPost2010PropOp50
 70
     1
102
RTVSPost2010Prop51ColorIndex
 90
      256
102
RTVSPost2010Prop51ColorRGB
 90
-16777216
102
RTVSPost2010PropOp51
 70
     0
102
RTVSPost2010Prop52
140
1.0
102
RTVSPost2010PropOp52
 70
     0
102
RTVSPost2010Prop53
 90
        2
102
RTVSPost2010PropOp53
 70
     1
102
RTVSPost2010Prop54
  1
strokes_ogs.tif
102
RTVSPost2010PropOp54
 70
     1
102
RTVSPost2010Prop55
280
     0
102
RTVSPost2010PropOp55
 70
     1
102
RTVSPost2010Prop56
140
1.0
102
RTVSPost2010PropOp56
 70
     1
102
RTVSPost2010Prop57
140
1.0
102
RTVSPost2010PropOp57
 70
     1
102
RTVSPropertyOp0
 70
     1
102
RTVSPropertyOp1
 70
     1
102
RTVSPropertyOp2
 70
     1
102
RTVSPropertyOp3
 70
     1
102
RTVSPropertyOp4
 70
     1
102
RTVSPropertyOp5
 70
     1
102
RTVSPropertyOp6
 70
     1
102
RTVSPropertyOp7
 70
     1
102
RTVSPropertyOp8
 70
     1
102
RTVSPropertyOp9
 70
     1
102
RTVSPropertyOp10
 70
     1
102
RTVSPropertyOp11
 70
     1
102
RTVSPropertyOp12
 70
     1
102
RTVSPropertyOp13
 70
     1
102
RTVSPropertyOp14
 70
     1
102
RTVSPropertyOp15
 70
     1
102
RTVSPropertyOp16
 70
     1
102
RTVSPropertyOp17
 70
     1
102
RTVSPropertyOp18
 70
     1
102
RTVSPropertyOp19
 70
     1
102
RTVSPropertyOp20
 70
     1
102
RTVSPropertyOp21
 70
     1
102
RTVSPropertyOp22
 70
     1
102
RTVSPropertyOp23
 70
     1
102
RTVSPropertyOp24
 70
     1
102
RTVSPropertyOp25
 70
     1
102
RTVSPropertyOp26
 70
     1
102
RTVSPropertyOp27
 70
     1
102
RTVSPropertyOp28
 70
     1
102
RTVSPropertyOp29
 70
     1
102
RTVSPropertyOp30
 70
     1
102
RTVSPropertyOp31
 70
     1
102
RTVSPropertyOp32
 70
     1
102
RTVSPropertyOp33
 70
     1
102
RTVSPropertyOp34
 70
     1
102
RTVSPropertyOp35
 70
     1
102
RTVSPropertyOp36
 70
     1
102
RTVSPropertyOp37
 70
     1
102
RTVSPropertyOp38
 70
     1
102
RTVSPropertyOp39
 70
     1
102
RTVSPropertyOp40
 70
     1
102
RTVSPropertyOp41
 70
     1
102
RTVSPropertyOp42
 70
     1
102
RTVSPropertyOp43
 70
     1
102
RTVSPropertyOp44
 70
     1
102
RTVSPropertyOp45
 70
     1
102
RTVSPropertyOp46
 70
     1
102
RTVSPropertyOp47
 70
     1
102
RTVSPropertyOp48
 70
     1
102
RTVSPropertyOp49
 70
     1
102
RTVSPropertyOp50
 70
     1
102
RTVSPropertyOp51
 70
     0
102
RTVSPropertyOp52
 70
     0
102
RTVSPropertyOp53
 70
     1
102
RTVSPropertyOp54
 70
     1
102
RTVSPropertyOp55
 70
     1
102
RTVSPropertyOp56
 70
     1
102
RTVSPropertyOp57
 70
     1
102
RTVSPropertyOp58
 70
     1
102
RTVSPropertyOp59
 70
     1
102
RTVSPropertyOp60
 70
     1
102
RTVSPropertyOp61
 70
     1
102
RTVSPropertyOp62
 70
     1
  0
XRECORD
  5
95E
102
{ACAD_REACTORS
330
95D
102
}
330
95D
100
AcDbXrecord
280
     1
102
RTVSPost2010Prop28
280
     0
102
RTVSPost2010PropOp28
 70
     1
102
RTVSPost2010Prop29
280
     1
102
RTVSPost2010PropOp29
 70
     1
102
RTVSPost2010Prop30
280
     1
102
RTVSPost2010PropOp30
 70
     1
102
RTVSPost2010Prop31
280
     0
102
RTVSPost2010PropOp31
 70
     1
102
RTVSPost2010Prop32
280
     0
102
RTVSPost2010PropOp32
 70
     1
102
RTVSPost2010Prop33
280
     0
102
RTVSPost2010PropOp33
 70
     1
102
RTVSPost2010Prop34
280
     0
102
RTVSPost2010PropOp34
 70
     1
102
RTVSPost2010Prop35
280
     0
102
RTVSPost2010PropOp35
 70
     1
102
RTVSPost2010Prop36
280
     0
102
RTVSPost2010PropOp36
 70
     1
102
RTVSPost2010Prop37
 90
       50
102
RTVSPost2010PropOp37
 70
     1
102
RTVSPost2010Prop38
140
0.0
102
RTVSPost2010PropOp38
 70
     1
102
RTVSPost2010Prop39
140
1.0
102
RTVSPost2010PropOp39
 70
     1
102
RTVSPost2010Prop40
 90
        0
102
RTVSPost2010PropOp40
 70
     1
102
RTVSPost2010Prop41ColorIndex
 90
       18
102
RTVSPost2010Prop41ColorRGB
 90
        0
102
RTVSPost2010PropOp41
 70
     1
102
RTVSPost2010Prop42
 90
       50
102
RTVSPost2010PropOp42
 70
     1
102
RTVSPost2010Prop43
 90
        3
102
RTVSPost2010PropOp43
 70
     1
102
RTVSPost2010Prop44ColorIndex
 90
        5
102
RTVSPost2010Prop44ColorRGB
 90
      255
102
RTVSPost2010PropOp44
 70
     1
102
RTVSPost2010Prop45
280
     0
102
RTVSPost2010PropOp45
 70
     1
102
RTVSPost2010Prop46
 90
       50
102
RTVSPost2010PropOp46
 70
     1
102
RTVSPost2010Prop47
 90
       50
102
RTVSPost2010PropOp47
 70
     1
102
RTVSPost2010Prop48
 90
       50
102
RTVSPost2010PropOp48
 70
     1
102
RTVSPost2010Prop49
280
     0
102
RTVSPost2010PropOp49
 70
     1
102
RTVSPost2010Prop50
 90
       50
102
RTVSPost2010PropOp50
 70
     1
102
RTVSPost2010Prop51ColorIndex
 90
      256
102
RTVSPost2010Prop51ColorRGB
 90
-16777216
102
RTVSPost2010PropOp51
 70
     0
102
RTVSPost2010Prop52
140
1.0
102
RTVSPost2010PropOp52
 70
     0
102
RTVSPost2010Prop53
 90
        2
102
RTVSPost2010PropOp53
 70
     1
102
RTVSPost2010Prop54
  1
strokes_ogs.tif
102
RTVSPost2010PropOp54
 70
     1
102
RTVSPost2010Prop55
280
     0
102
RTVSPost2010PropOp55
 70
     1
102
RTVSPost2010Prop56
140
1.0
102
RTVSPost2010PropOp56
 70
     1
102
RTVSPost2010Prop57
140
1.0
102
RTVSPost2010PropOp57
 70
     1
102
RTVSPropertyOp0
 70
     1
102
RTVSPropertyOp1
 70
     1
102
RTVSPropertyOp2
 70
     1
102
RTVSPropertyOp3
 70
     1
102
RTVSPropertyOp4
 70
     1
102
RTVSPropertyOp5
 70
     1
102
RTVSPropertyOp6
 70
     1
102
RTVSPropertyOp7
 70
     1
102
RTVSPropertyOp8
 70
     1
102
RTVSPropertyOp9
 70
     1
102
RTVSPropertyOp10
 70
     1
102
RTVSPropertyOp11
 70
     1
102
RTVSPropertyOp12
 70
     1
102
RTVSPropertyOp13
 70
     1
102
RTVSPropertyOp14
 70
     1
102
RTVSPropertyOp15
 70
     1
102
RTVSPropertyOp16
 70
     1
102
RTVSPropertyOp17
 70
     1
102
RTVSPropertyOp18
 70
     1
102
RTVSPropertyOp19
 70
     1
102
RTVSPropertyOp20
 70
     1
102
RTVSPropertyOp21
 70
     1
102
RTVSPropertyOp22
 70
     1
102
RTVSPropertyOp23
 70
     1
102
RTVSPropertyOp24
 70
     1
102
RTVSPropertyOp25
 70
     1
102
RTVSPropertyOp26
 70
     1
102
RTVSPropertyOp27
 70
     1
102
RTVSPropertyOp28
 70
     1
102
RTVSPropertyOp29
 70
     1
102
RTVSPropertyOp30
 70
     1
102
RTVSPropertyOp31
 70
     1
102
RTVSPropertyOp32
 70
     1
102
RTVSPropertyOp33
 70
     1
102
RTVSPropertyOp34
 70
     1
102
RTVSPropertyOp35
 70
     1
102
RTVSPropertyOp36
 70
     1
102
RTVSPropertyOp37
 70
     1
102
RTVSPropertyOp38
 70
     1
102
RTVSPropertyOp39
 70
     1
102
RTVSPropertyOp40
 70
     1
102
RTVSPropertyOp41
 70
     1
102
RTVSPropertyOp42
 70
     1
102
RTVSPropertyOp43
 70
     1
102
RTVSPropertyOp44
 70
     1
102
RTVSPropertyOp45
 70
     1
102
RTVSPropertyOp46
 70
     1
102
RTVSPropertyOp47
 70
     1
102
RTVSPropertyOp48
 70
     1
102
RTVSPropertyOp49
 70
     1
102
RTVSPropertyOp50
 70
     1
102
RTVSPropertyOp51
 70
     0
102
RTVSPropertyOp52
 70
     0
102
RTVSPropertyOp53
 70
     1
102
RTVSPropertyOp54
 70
     1
102
RTVSPropertyOp55
 70
     1
102
RTVSPropertyOp56
 70
     1
102
RTVSPropertyOp57
 70
     1
102
RTVSPropertyOp58
 70
     1
102
RTVSPropertyOp59
 70
     1
102
RTVSPropertyOp60
 70
     1
102
RTVSPropertyOp61
 70
     1
102
RTVSPropertyOp62
 70
     1
  0
XRECORD
  5
962
102
{ACAD_REACTORS
330
961
102
}
330
961
100
AcDbXrecord
280
     1
102
RTVSPost2010Prop28
280
     0
102
RTVSPost2010PropOp28
 70
     1
102
RTVSPost2010Prop29
280
     1
102
RTVSPost2010PropOp29
 70
     1
102
RTVSPost2010Prop30
280
     1
102
RTVSPost2010PropOp30
 70
     1
102
RTVSPost2010Prop31
280
     0
102
RTVSPost2010PropOp31
 70
     1
102
RTVSPost2010Prop32
280
     0
102
RTVSPost2010PropOp32
 70
     1
102
RTVSPost2010Prop33
280
     0
102
RTVSPost2010PropOp33
 70
     1
102
RTVSPost2010Prop34
280
     0
102
RTVSPost2010PropOp34
 70
     1
102
RTVSPost2010Prop35
280
     0
102
RTVSPost2010PropOp35
 70
     1
102
RTVSPost2010Prop36
280
     0
102
RTVSPost2010PropOp36
 70
     1
102
RTVSPost2010Prop37
 90
       50
102
RTVSPost2010PropOp37
 70
     1
102
RTVSPost2010Prop38
140
0.0
102
RTVSPost2010PropOp38
 70
     1
102
RTVSPost2010Prop39
140
1.0
102
RTVSPost2010PropOp39
 70
     1
102
RTVSPost2010Prop40
 90
        0
102
RTVSPost2010PropOp40
 70
     1
102
RTVSPost2010Prop41ColorIndex
 90
       18
102
RTVSPost2010Prop41ColorRGB
 90
        0
102
RTVSPost2010PropOp41
 70
     1
102
RTVSPost2010Prop42
 90
       50
102
RTVSPost2010PropOp42
 70
     1
102
RTVSPost2010Prop43
 90
        3
102
RTVSPost2010PropOp43
 70
     1
102
RTVSPost2010Prop44ColorIndex
 90
        5
102
RTVSPost2010Prop44ColorRGB
 90
      255
102
RTVSPost2010PropOp44
 70
     1
102
RTVSPost2010Prop45
280
     0
102
RTVSPost2010PropOp45
 70
     1
102
RTVSPost2010Prop46
 90
       50
102
RTVSPost2010PropOp46
 70
     1
102
RTVSPost2010Prop47
 90
       50
102
RTVSPost2010PropOp47
 70
     1
102
RTVSPost2010Prop48
 90
       50
102
RTVSPost2010PropOp48
 70
     1
102
RTVSPost2010Prop49
280
     0
102
RTVSPost2010PropOp49
 70
     1
102
RTVSPost2010Prop50
 90
       50
102
RTVSPost2010PropOp50
 70
     1
102
RTVSPost2010Prop51ColorIndex
 90
      256
102
RTVSPost2010Prop51ColorRGB
 90
-16777216
102
RTVSPost2010PropOp51
 70
     0
102
RTVSPost2010Prop52
140
1.0
102
RTVSPost2010PropOp52
 70
     0
102
RTVSPost2010Prop53
 90
        2
102
RTVSPost2010PropOp53
 70
     1
102
RTVSPost2010Prop54
  1
strokes_ogs.tif
102
RTVSPost2010PropOp54
 70
     1
102
RTVSPost2010Prop55
280
     0
102
RTVSPost2010PropOp55
 70
     1
102
RTVSPost2010Prop56
140
1.0
102
RTVSPost2010PropOp56
 70
     1
102
RTVSPost2010Prop57
140
1.0
102
RTVSPost2010PropOp57
 70
     1
102
RTVSPropertyOp0
 70
     1
102
RTVSPropertyOp1
 70
     1
102
RTVSPropertyOp2
 70
     1
102
RTVSPropertyOp3
 70
     1
102
RTVSPropertyOp4
 70
     1
102
RTVSPropertyOp5
 70
     1
102
RTVSPropertyOp6
 70
     1
102
RTVSPropertyOp7
 70
     1
102
RTVSPropertyOp8
 70
     1
102
RTVSPropertyOp9
 70
     1
102
RTVSPropertyOp10
 70
     1
102
RTVSPropertyOp11
 70
     1
102
RTVSPropertyOp12
 70
     1
102
RTVSPropertyOp13
 70
     1
102
RTVSPropertyOp14
 70
     1
102
RTVSPropertyOp15
 70
     1
102
RTVSPropertyOp16
 70
     1
102
RTVSPropertyOp17
 70
     1
102
RTVSPropertyOp18
 70
     1
102
RTVSPropertyOp19
 70
     1
102
RTVSPropertyOp20
 70
     1
102
RTVSPropertyOp21
 70
     1
102
RTVSPropertyOp22
 70
     1
102
RTVSPropertyOp23
 70
     1
102
RTVSPropertyOp24
 70
     1
102
RTVSPropertyOp25
 70
     1
102
RTVSPropertyOp26
 70
     1
102
RTVSPropertyOp27
 70
     1
102
RTVSPropertyOp28
 70
     1
102
RTVSPropertyOp29
 70
     1
102
RTVSPropertyOp30
 70
     1
102
RTVSPropertyOp31
 70
     1
102
RTVSPropertyOp32
 70
     1
102
RTVSPropertyOp33
 70
     1
102
RTVSPropertyOp34
 70
     1
102
RTVSPropertyOp35
 70
     1
102
RTVSPropertyOp36
 70
     1
102
RTVSPropertyOp37
 70
     1
102
RTVSPropertyOp38
 70
     1
102
RTVSPropertyOp39
 70
     1
102
RTVSPropertyOp40
 70
     1
102
RTVSPropertyOp41
 70
     1
102
RTVSPropertyOp42
 70
     1
102
RTVSPropertyOp43
 70
     1
102
RTVSPropertyOp44
 70
     1
102
RTVSPropertyOp45
 70
     1
102
RTVSPropertyOp46
 70
     1
102
RTVSPropertyOp47
 70
     1
102
RTVSPropertyOp48
 70
     1
102
RTVSPropertyOp49
 70
     1
102
RTVSPropertyOp50
 70
     1
102
RTVSPropertyOp51
 70
     0
102
RTVSPropertyOp52
 70
     0
102
RTVSPropertyOp53
 70
     1
102
RTVSPropertyOp54
 70
     1
102
RTVSPropertyOp55
 70
     1
102
RTVSPropertyOp56
 70
     1
102
RTVSPropertyOp57
 70
     1
102
RTVSPropertyOp58
 70
     1
102
RTVSPropertyOp59
 70
     1
102
RTVSPropertyOp60
 70
     1
102
RTVSPropertyOp61
 70
     1
102
RTVSPropertyOp62
 70
     1
  0
XRECORD
  5
97C
102
{ACAD_REACTORS
330
97B
102
}
330
97B
100
AcDbXrecord
280
     1
102
RTVSPost2010Prop28
280
     0
102
RTVSPost2010PropOp28
 70
     1
102
RTVSPost2010Prop29
280
     1
102
RTVSPost2010PropOp29
 70
     1
102
RTVSPost2010Prop30
280
     1
102
RTVSPost2010PropOp30
 70
     1
102
RTVSPost2010Prop31
280
     0
102
RTVSPost2010PropOp31
 70
     1
102
RTVSPost2010Prop32
280
     0
102
RTVSPost2010PropOp32
 70
     1
102
RTVSPost2010Prop33
280
     0
102
RTVSPost2010PropOp33
 70
     1
102
RTVSPost2010Prop34
280
     0
102
RTVSPost2010PropOp34
 70
     1
102
RTVSPost2010Prop35
280
     0
102
RTVSPost2010PropOp35
 70
     1
102
RTVSPost2010Prop36
280
     0
102
RTVSPost2010PropOp36
 70
     1
102
RTVSPost2010Prop37
 90
       50
102
RTVSPost2010PropOp37
 70
     0
102
RTVSPost2010Prop38
140
0.0
102
RTVSPost2010PropOp38
 70
     0
102
RTVSPost2010Prop39
140
1.0
102
RTVSPost2010PropOp39
 70
     0
102
RTVSPost2010Prop40
 90
        0
102
RTVSPost2010PropOp40
 70
     0
102
RTVSPost2010Prop41ColorIndex
 90
       18
102
RTVSPost2010Prop41ColorRGB
 90
        0
102
RTVSPost2010PropOp41
 70
     0
102
RTVSPost2010Prop42
 90
       50
102
RTVSPost2010PropOp42
 70
     0
102
RTVSPost2010Prop43
 90
        3
102
RTVSPost2010PropOp43
 70
     0
102
RTVSPost2010Prop44ColorIndex
 90
        5
102
RTVSPost2010Prop44ColorRGB
 90
      255
102
RTVSPost2010PropOp44
 70
     0
102
RTVSPost2010Prop45
280
     0
102
RTVSPost2010PropOp45
 70
     1
102
RTVSPost2010Prop46
 90
       50
102
RTVSPost2010PropOp46
 70
     0
102
RTVSPost2010Prop47
 90
       50
102
RTVSPost2010PropOp47
 70
     0
102
RTVSPost2010Prop48
 90
       50
102
RTVSPost2010PropOp48
 70
     0
102
RTVSPost2010Prop49
280
     0
102
RTVSPost2010PropOp49
 70
     1
102
RTVSPost2010Prop50
 90
       50
102
RTVSPost2010PropOp50
 70
     0
102
RTVSPost2010Prop51ColorIndex
 90
      256
102
RTVSPost2010Prop51ColorRGB
 90
-16777216
102
RTVSPost2010PropOp51
 70
     0
102
RTVSPost2010Prop52
140
1.0
102
RTVSPost2010PropOp52
 70
     0
102
RTVSPost2010Prop53
 90
        2
102
RTVSPost2010PropOp53
 70
     0
102
RTVSPost2010Prop54
  1
strokes_ogs.tif
102
RTVSPost2010PropOp54
 70
     0
102
RTVSPost2010Prop55
280
     0
102
RTVSPost2010PropOp55
 70
     1
102
RTVSPost2010Prop56
140
1.0
102
RTVSPost2010PropOp56
 70
     0
102
RTVSPost2010Prop57
140
1.0
102
RTVSPost2010PropOp57
 70
     0
102
RTVSPropertyOp0
 70
     0
102
RTVSPropertyOp1
 70
     0
102
RTVSPropertyOp2
 70
     0
102
RTVSPropertyOp3
 70
     0
102
RTVSPropertyOp4
 70
     0
102
RTVSPropertyOp5
 70
     0
102
RTVSPropertyOp6
 70
     0
102
RTVSPropertyOp7
 70
     0
102
RTVSPropertyOp8
 70
     0
102
RTVSPropertyOp9
 70
     0
102
RTVSPropertyOp10
 70
     0
102
RTVSPropertyOp11
 70
     0
102
RTVSPropertyOp12
 70
     0
102
RTVSPropertyOp13
 70
     0
102
RTVSPropertyOp14
 70
     2
102
RTVSPropertyOp15
 70
     0
102
RTVSPropertyOp16
 70
     0
102
RTVSPropertyOp17
 70
     0
102
RTVSPropertyOp18
 70
     0
102
RTVSPropertyOp19
 70
     0
102
RTVSPropertyOp20
 70
     0
102
RTVSPropertyOp21
 70
     0
102
RTVSPropertyOp22
 70
     0
102
RTVSPropertyOp23
 70
     0
102
RTVSPropertyOp24
 70
     0
102
RTVSPropertyOp25
 70
     0
102
RTVSPropertyOp26
 70
     0
102
RTVSPropertyOp27
 70
     0
102
RTVSPropertyOp28
 70
     1
102
RTVSPropertyOp29
 70
     1
102
RTVSPropertyOp30
 70
     1
102
RTVSPropertyOp31
 70
     1
102
RTVSPropertyOp32
 70
     1
102
RTVSPropertyOp33
 70
     1
102
RTVSPropertyOp34
 70
     1
102
RTVSPropertyOp35
 70
     1
102
RTVSPropertyOp36
 70
     1
102
RTVSPropertyOp37
 70
     0
102
RTVSPropertyOp38
 70
     0
102
RTVSPropertyOp39
 70
     0
102
RTVSPropertyOp40
 70
     0
102
RTVSPropertyOp41
 70
     0
102
RTVSPropertyOp42
 70
     0
102
RTVSPropertyOp43
 70
     0
102
RTVSPropertyOp44
 70
     0
102
RTVSPropertyOp45
 70
     1
102
RTVSPropertyOp46
 70
     0
102
RTVSPropertyOp47
 70
     0
102
RTVSPropertyOp48
 70
     0
102
RTVSPropertyOp49
 70
     1
102
RTVSPropertyOp50
 70
     0
102
RTVSPropertyOp51
 70
     0
102
RTVSPropertyOp52
 70
     0
102
RTVSPropertyOp53
 70
     0
102
RTVSPropertyOp54
 70
     0
102
RTVSPropertyOp55
 70
     1
102
RTVSPropertyOp56
 70
     0
102
RTVSPropertyOp57
 70
     0
102
RTVSPropertyOp58
 70
     0
102
RTVSPropertyOp59
 70
     0
102
RTVSPropertyOp60
 70
     0
102
RTVSPropertyOp61
 70
     0
102
RTVSPropertyOp62
 70
     0
  0
XRECORD
  5
96A
102
{ACAD_REACTORS
330
969
102
}
330
969
100
AcDbXrecord
280
     1
102
RTVSPost2010Prop28
280
     0
102
RTVSPost2010PropOp28
 70
     1
102
RTVSPost2010Prop29
280
     1
102
RTVSPost2010PropOp29
 70
     1
102
RTVSPost2010Prop30
280
     1
102
RTVSPost2010PropOp30
 70
     1
102
RTVSPost2010Prop31
280
     0
102
RTVSPost2010PropOp31
 70
     1
102
RTVSPost2010Prop32
280
     0
102
RTVSPost2010PropOp32
 70
     1
102
RTVSPost2010Prop33
280
     0
102
RTVSPost2010PropOp33
 70
     1
102
RTVSPost2010Prop34
280
     0
102
RTVSPost2010PropOp34
 70
     1
102
RTVSPost2010Prop35
280
     0
102
RTVSPost2010PropOp35
 70
     1
102
RTVSPost2010Prop36
280
     0
102
RTVSPost2010PropOp36
 70
     1
102
RTVSPost2010Prop37
 90
       50
102
RTVSPost2010PropOp37
 70
     1
102
RTVSPost2010Prop38
140
0.0
102
RTVSPost2010PropOp38
 70
     1
102
RTVSPost2010Prop39
140
1.0
102
RTVSPost2010PropOp39
 70
     1
102
RTVSPost2010Prop40
 90
        0
102
RTVSPost2010PropOp40
 70
     1
102
RTVSPost2010Prop41ColorIndex
 90
       18
102
RTVSPost2010Prop41ColorRGB
 90
        0
102
RTVSPost2010PropOp41
 70
     1
102
RTVSPost2010Prop42
 90
       50
102
RTVSPost2010PropOp42
 70
     1
102
RTVSPost2010Prop43
 90
        3
102
RTVSPost2010PropOp43
 70
     1
102
RTVSPost2010Prop44ColorIndex
 90
        5
102
RTVSPost2010Prop44ColorRGB
 90
      255
102
RTVSPost2010PropOp44
 70
     1
102
RTVSPost2010Prop45
280
     0
102
RTVSPost2010PropOp45
 70
     1
102
RTVSPost2010Prop46
 90
       50
102
RTVSPost2010PropOp46
 70
     1
102
RTVSPost2010Prop47
 90
       50
102
RTVSPost2010PropOp47
 70
     1
102
RTVSPost2010Prop48
 90
       50
102
RTVSPost2010PropOp48
 70
     1
102
RTVSPost2010Prop49
280
     0
102
RTVSPost2010PropOp49
 70
     1
102
RTVSPost2010Prop50
 90
       50
102
RTVSPost2010PropOp50
 70
     1
102
RTVSPost2010Prop51ColorIndex
 90
      256
102
RTVSPost2010Prop51ColorRGB
 90
-16777216
102
RTVSPost2010PropOp51
 70
     0
102
RTVSPost2010Prop52
140
1.0
102
RTVSPost2010PropOp52
 70
     0
102
RTVSPost2010Prop53
 90
        2
102
RTVSPost2010PropOp53
 70
     1
102
RTVSPost2010Prop54
  1
strokes_ogs.tif
102
RTVSPost2010PropOp54
 70
     1
102
RTVSPost2010Prop55
280
     0
102
RTVSPost2010PropOp55
 70
     1
102
RTVSPost2010Prop56
140
1.0
102
RTVSPost2010PropOp56
 70
     1
102
RTVSPost2010Prop57
140
1.0
102
RTVSPost2010PropOp57
 70
     1
102
RTVSPropertyOp0
 70
     1
102
RTVSPropertyOp1
 70
     1
102
RTVSPropertyOp2
 70
     1
102
RTVSPropertyOp3
 70
     1
102
RTVSPropertyOp4
 70
     1
102
RTVSPropertyOp5
 70
     1
102
RTVSPropertyOp6
 70
     1
102
RTVSPropertyOp7
 70
     1
102
RTVSPropertyOp8
 70
     1
102
RTVSPropertyOp9
 70
     1
102
RTVSPropertyOp10
 70
     1
102
RTVSPropertyOp11
 70
     1
102
RTVSPropertyOp12
 70
     1
102
RTVSPropertyOp13
 70
     1
102
RTVSPropertyOp14
 70
     1
102
RTVSPropertyOp15
 70
     1
102
RTVSPropertyOp16
 70
     1
102
RTVSPropertyOp17
 70
     1
102
RTVSPropertyOp18
 70
     1
102
RTVSPropertyOp19
 70
     1
102
RTVSPropertyOp20
 70
     1
102
RTVSPropertyOp21
 70
     1
102
RTVSPropertyOp22
 70
     1
102
RTVSPropertyOp23
 70
     1
102
RTVSPropertyOp24
 70
     1
102
RTVSPropertyOp25
 70
     1
102
RTVSPropertyOp26
 70
     1
102
RTVSPropertyOp27
 70
     1
102
RTVSPropertyOp28
 70
     1
102
RTVSPropertyOp29
 70
     1
102
RTVSPropertyOp30
 70
     1
102
RTVSPropertyOp31
 70
     1
102
RTVSPropertyOp32
 70
     1
102
RTVSPropertyOp33
 70
     1
102
RTVSPropertyOp34
 70
     1
102
RTVSPropertyOp35
 70
     1
102
RTVSPropertyOp36
 70
     1
102
RTVSPropertyOp37
 70
     1
102
RTVSPropertyOp38
 70
     1
102
RTVSPropertyOp39
 70
     1
102
RTVSPropertyOp40
 70
     1
102
RTVSPropertyOp41
 70
     1
102
RTVSPropertyOp42
 70
     1
102
RTVSPropertyOp43
 70
     1
102
RTVSPropertyOp44
 70
     1
102
RTVSPropertyOp45
 70
     1
102
RTVSPropertyOp46
 70
     1
102
RTVSPropertyOp47
 70
     1
102
RTVSPropertyOp48
 70
     1
102
RTVSPropertyOp49
 70
     1
102
RTVSPropertyOp50
 70
     1
102
RTVSPropertyOp51
 70
     0
102
RTVSPropertyOp52
 70
     0
102
RTVSPropertyOp53
 70
     1
102
RTVSPropertyOp54
 70
     1
102
RTVSPropertyOp55
 70
     1
102
RTVSPropertyOp56
 70
     1
102
RTVSPropertyOp57
 70
     1
102
RTVSPropertyOp58
 70
     1
102
RTVSPropertyOp59
 70
     1
102
RTVSPropertyOp60
 70
     1
102
RTVSPropertyOp61
 70
     1
102
RTVSPropertyOp62
 70
     1
  0
XRECORD
  5
94E
102
{ACAD_REACTORS
330
94D
102
}
330
94D
100
AcDbXrecord
280
     1
102
RTVSPost2010Prop28
280
     0
102
RTVSPost2010PropOp28
 70
     1
102
RTVSPost2010Prop29
280
     1
102
RTVSPost2010PropOp29
 70
     1
102
RTVSPost2010Prop30
280
     1
102
RTVSPost2010PropOp30
 70
     1
102
RTVSPost2010Prop31
280
     0
102
RTVSPost2010PropOp31
 70
     1
102
RTVSPost2010Prop32
280
     0
102
RTVSPost2010PropOp32
 70
     1
102
RTVSPost2010Prop33
280
     0
102
RTVSPost2010PropOp33
 70
     1
102
RTVSPost2010Prop34
280
     0
102
RTVSPost2010PropOp34
 70
     1
102
RTVSPost2010Prop35
280
     0
102
RTVSPost2010PropOp35
 70
     1
102
RTVSPost2010Prop36
280
     0
102
RTVSPost2010PropOp36
 70
     1
102
RTVSPost2010Prop37
 90
       50
102
RTVSPost2010PropOp37
 70
     1
102
RTVSPost2010Prop38
140
0.0
102
RTVSPost2010PropOp38
 70
     1
102
RTVSPost2010Prop39
140
1.0
102
RTVSPost2010PropOp39
 70
     1
102
RTVSPost2010Prop40
 90
        0
102
RTVSPost2010PropOp40
 70
     1
102
RTVSPost2010Prop41ColorIndex
 90
       18
102
RTVSPost2010Prop41ColorRGB
 90
        0
102
RTVSPost2010PropOp41
 70
     1
102
RTVSPost2010Prop42
 90
       50
102
RTVSPost2010PropOp42
 70
     1
102
RTVSPost2010Prop43
 90
        3
102
RTVSPost2010PropOp43
 70
     1
102
RTVSPost2010Prop44ColorIndex
 90
        5
102
RTVSPost2010Prop44ColorRGB
 90
      255
102
RTVSPost2010PropOp44
 70
     1
102
RTVSPost2010Prop45
280
     0
102
RTVSPost2010PropOp45
 70
     1
102
RTVSPost2010Prop46
 90
       50
102
RTVSPost2010PropOp46
 70
     1
102
RTVSPost2010Prop47
 90
       50
102
RTVSPost2010PropOp47
 70
     1
102
RTVSPost2010Prop48
 90
       50
102
RTVSPost2010PropOp48
 70
     1
102
RTVSPost2010Prop49
280
     0
102
RTVSPost2010PropOp49
 70
     1
102
RTVSPost2010Prop50
 90
       50
102
RTVSPost2010PropOp50
 70
     1
102
RTVSPost2010Prop51ColorIndex
 90
      256
102
RTVSPost2010Prop51ColorRGB
 90
-16777216
102
RTVSPost2010PropOp51
 70
     0
102
RTVSPost2010Prop52
140
1.0
102
RTVSPost2010PropOp52
 70
     0
102
RTVSPost2010Prop53
 90
        2
102
RTVSPost2010PropOp53
 70
     1
102
RTVSPost2010Prop54
  1
strokes_ogs.tif
102
RTVSPost2010PropOp54
 70
     1
102
RTVSPost2010Prop55
280
     0
102
RTVSPost2010PropOp55
 70
     1
102
RTVSPost2010Prop56
140
1.0
102
RTVSPost2010PropOp56
 70
     1
102
RTVSPost2010Prop57
140
1.0
102
RTVSPost2010PropOp57
 70
     1
102
RTVSPropertyOp0
 70
     1
102
RTVSPropertyOp1
 70
     1
102
RTVSPropertyOp2
 70
     1
102
RTVSPropertyOp3
 70
     1
102
RTVSPropertyOp4
 70
     1
102
RTVSPropertyOp5
 70
     1
102
RTVSPropertyOp6
 70
     1
102
RTVSPropertyOp7
 70
     1
102
RTVSPropertyOp8
 70
     1
102
RTVSPropertyOp9
 70
     1
102
RTVSPropertyOp10
 70
     1
102
RTVSPropertyOp11
 70
     1
102
RTVSPropertyOp12
 70
     1
102
RTVSPropertyOp13
 70
     1
102
RTVSPropertyOp14
 70
     1
102
RTVSPropertyOp15
 70
     1
102
RTVSPropertyOp16
 70
     1
102
RTVSPropertyOp17
 70
     1
102
RTVSPropertyOp18
 70
     1
102
RTVSPropertyOp19
 70
     1
102
RTVSPropertyOp20
 70
     1
102
RTVSPropertyOp21
 70
     1
102
RTVSPropertyOp22
 70
     1
102
RTVSPropertyOp23
 70
     1
102
RTVSPropertyOp24
 70
     1
102
RTVSPropertyOp25
 70
     1
102
RTVSPropertyOp26
 70
     1
102
RTVSPropertyOp27
 70
     1
102
RTVSPropertyOp28
 70
     1
102
RTVSPropertyOp29
 70
     1
102
RTVSPropertyOp30
 70
     1
102
RTVSPropertyOp31
 70
     1
102
RTVSPropertyOp32
 70
     1
102
RTVSPropertyOp33
 70
     1
102
RTVSPropertyOp34
 70
     1
102
RTVSPropertyOp35
 70
     1
102
RTVSPropertyOp36
 70
     1
102
RTVSPropertyOp37
 70
     1
102
RTVSPropertyOp38
 70
     1
102
RTVSPropertyOp39
 70
     1
102
RTVSPropertyOp40
 70
     1
102
RTVSPropertyOp41
 70
     1
102
RTVSPropertyOp42
 70
     1
102
RTVSPropertyOp43
 70
     1
102
RTVSPropertyOp44
 70
     1
102
RTVSPropertyOp45
 70
     1
102
RTVSPropertyOp46
 70
     1
102
RTVSPropertyOp47
 70
     1
102
RTVSPropertyOp48
 70
     1
102
RTVSPropertyOp49
 70
     1
102
RTVSPropertyOp50
 70
     1
102
RTVSPropertyOp51
 70
     0
102
RTVSPropertyOp52
 70
     0
102
RTVSPropertyOp53
 70
     1
102
RTVSPropertyOp54
 70
     1
102
RTVSPropertyOp55
 70
     1
102
RTVSPropertyOp56
 70
     1
102
RTVSPropertyOp57
 70
     1
102
RTVSPropertyOp58
 70
     1
102
RTVSPropertyOp59
 70
     1
102
RTVSPropertyOp60
 70
     1
102
RTVSPropertyOp61
 70
     1
102
RTVSPropertyOp62
 70
     1
  0
XRECORD
  5
950
102
{ACAD_REACTORS
330
94F
102
}
330
94F
100
AcDbXrecord
280
     1
102
RTVSPost2010Prop28
280
     0
102
RTVSPost2010PropOp28
 70
     1
102
RTVSPost2010Prop29
280
     1
102
RTVSPost2010PropOp29
 70
     1
102
RTVSPost2010Prop30
280
     1
102
RTVSPost2010PropOp30
 70
     1
102
RTVSPost2010Prop31
280
     0
102
RTVSPost2010PropOp31
 70
     1
102
RTVSPost2010Prop32
280
     0
102
RTVSPost2010PropOp32
 70
     1
102
RTVSPost2010Prop33
280
     0
102
RTVSPost2010PropOp33
 70
     1
102
RTVSPost2010Prop34
280
     0
102
RTVSPost2010PropOp34
 70
     1
102
RTVSPost2010Prop35
280
     0
102
RTVSPost2010PropOp35
 70
     1
102
RTVSPost2010Prop36
280
     0
102
RTVSPost2010PropOp36
 70
     1
102
RTVSPost2010Prop37
 90
       50
102
RTVSPost2010PropOp37
 70
     1
102
RTVSPost2010Prop38
140
0.0
102
RTVSPost2010PropOp38
 70
     1
102
RTVSPost2010Prop39
140
1.0
102
RTVSPost2010PropOp39
 70
     1
102
RTVSPost2010Prop40
 90
        0
102
RTVSPost2010PropOp40
 70
     1
102
RTVSPost2010Prop41ColorIndex
 90
       18
102
RTVSPost2010Prop41ColorRGB
 90
        0
102
RTVSPost2010PropOp41
 70
     1
102
RTVSPost2010Prop42
 90
       50
102
RTVSPost2010PropOp42
 70
     1
102
RTVSPost2010Prop43
 90
        3
102
RTVSPost2010PropOp43
 70
     1
102
RTVSPost2010Prop44ColorIndex
 90
        5
102
RTVSPost2010Prop44ColorRGB
 90
      255
102
RTVSPost2010PropOp44
 70
     1
102
RTVSPost2010Prop45
280
     0
102
RTVSPost2010PropOp45
 70
     1
102
RTVSPost2010Prop46
 90
       50
102
RTVSPost2010PropOp46
 70
     1
102
RTVSPost2010Prop47
 90
       50
102
RTVSPost2010PropOp47
 70
     1
102
RTVSPost2010Prop48
 90
       50
102
RTVSPost2010PropOp48
 70
     1
102
RTVSPost2010Prop49
280
     0
102
RTVSPost2010PropOp49
 70
     1
102
RTVSPost2010Prop50
 90
       50
102
RTVSPost2010PropOp50
 70
     1
102
RTVSPost2010Prop51ColorIndex
 90
      256
102
RTVSPost2010Prop51ColorRGB
 90
-16777216
102
RTVSPost2010PropOp51
 70
     0
102
RTVSPost2010Prop52
140
1.0
102
RTVSPost2010PropOp52
 70
     0
102
RTVSPost2010Prop53
 90
        2
102
RTVSPost2010PropOp53
 70
     1
102
RTVSPost2010Prop54
  1
strokes_ogs.tif
102
RTVSPost2010PropOp54
 70
     1
102
RTVSPost2010Prop55
280
     0
102
RTVSPost2010PropOp55
 70
     1
102
RTVSPost2010Prop56
140
1.0
102
RTVSPost2010PropOp56
 70
     1
102
RTVSPost2010Prop57
140
1.0
102
RTVSPost2010PropOp57
 70
     1
102
RTVSPropertyOp0
 70
     1
102
RTVSPropertyOp1
 70
     1
102
RTVSPropertyOp2
 70
     1
102
RTVSPropertyOp3
 70
     1
102
RTVSPropertyOp4
 70
     1
102
RTVSPropertyOp5
 70
     1
102
RTVSPropertyOp6
 70
     1
102
RTVSPropertyOp7
 70
     1
102
RTVSPropertyOp8
 70
     1
102
RTVSPropertyOp9
 70
     1
102
RTVSPropertyOp10
 70
     1
102
RTVSPropertyOp11
 70
     1
102
RTVSPropertyOp12
 70
     1
102
RTVSPropertyOp13
 70
     1
102
RTVSPropertyOp14
 70
     1
102
RTVSPropertyOp15
 70
     1
102
RTVSPropertyOp16
 70
     1
102
RTVSPropertyOp17
 70
     1
102
RTVSPropertyOp18
 70
     1
102
RTVSPropertyOp19
 70
     1
102
RTVSPropertyOp20
 70
     1
102
RTVSPropertyOp21
 70
     1
102
RTVSPropertyOp22
 70
     1
102
RTVSPropertyOp23
 70
     1
102
RTVSPropertyOp24
 70
     1
102
RTVSPropertyOp25
 70
     1
102
RTVSPropertyOp26
 70
     1
102
RTVSPropertyOp27
 70
     1
102
RTVSPropertyOp28
 70
     1
102
RTVSPropertyOp29
 70
     1
102
RTVSPropertyOp30
 70
     1
102
RTVSPropertyOp31
 70
     1
102
RTVSPropertyOp32
 70
     1
102
RTVSPropertyOp33
 70
     1
102
RTVSPropertyOp34
 70
     1
102
RTVSPropertyOp35
 70
     1
102
RTVSPropertyOp36
 70
     1
102
RTVSPropertyOp37
 70
     1
102
RTVSPropertyOp38
 70
     1
102
RTVSPropertyOp39
 70
     1
102
RTVSPropertyOp40
 70
     1
102
RTVSPropertyOp41
 70
     1
102
RTVSPropertyOp42
 70
     1
102
RTVSPropertyOp43
 70
     1
102
RTVSPropertyOp44
 70
     1
102
RTVSPropertyOp45
 70
     1
102
RTVSPropertyOp46
 70
     1
102
RTVSPropertyOp47
 70
     1
102
RTVSPropertyOp48
 70
     1
102
RTVSPropertyOp49
 70
     1
102
RTVSPropertyOp50
 70
     1
102
RTVSPropertyOp51
 70
     0
102
RTVSPropertyOp52
 70
     0
102
RTVSPropertyOp53
 70
     1
102
RTVSPropertyOp54
 70
     1
102
RTVSPropertyOp55
 70
     1
102
RTVSPropertyOp56
 70
     1
102
RTVSPropertyOp57
 70
     1
102
RTVSPropertyOp58
 70
     1
102
RTVSPropertyOp59
 70
     1
102
RTVSPropertyOp60
 70
     1
102
RTVSPropertyOp61
 70
     1
102
RTVSPropertyOp62
 70
     1
  0
XRECORD
  5
952
102
{ACAD_REACTORS
330
951
102
}
330
951
100
AcDbXrecord
280
     1
102
RTVSPost2010Prop28
280
     0
102
RTVSPost2010PropOp28
 70
     1
102
RTVSPost2010Prop29
280
     1
102
RTVSPost2010PropOp29
 70
     1
102
RTVSPost2010Prop30
280
     1
102
RTVSPost2010PropOp30
 70
     1
102
RTVSPost2010Prop31
280
     0
102
RTVSPost2010PropOp31
 70
     1
102
RTVSPost2010Prop32
280
     0
102
RTVSPost2010PropOp32
 70
     1
102
RTVSPost2010Prop33
280
     0
102
RTVSPost2010PropOp33
 70
     1
102
RTVSPost2010Prop34
280
     0
102
RTVSPost2010PropOp34
 70
     1
102
RTVSPost2010Prop35
280
     0
102
RTVSPost2010PropOp35
 70
     1
102
RTVSPost2010Prop36
280
     0
102
RTVSPost2010PropOp36
 70
     1
102
RTVSPost2010Prop37
 90
       50
102
RTVSPost2010PropOp37
 70
     1
102
RTVSPost2010Prop38
140
0.0
102
RTVSPost2010PropOp38
 70
     1
102
RTVSPost2010Prop39
140
1.0
102
RTVSPost2010PropOp39
 70
     1
102
RTVSPost2010Prop40
 90
        0
102
RTVSPost2010PropOp40
 70
     1
102
RTVSPost2010Prop41ColorIndex
 90
       18
102
RTVSPost2010Prop41ColorRGB
 90
        0
102
RTVSPost2010PropOp41
 70
     1
102
RTVSPost2010Prop42
 90
       50
102
RTVSPost2010PropOp42
 70
     1
102
RTVSPost2010Prop43
 90
        3
102
RTVSPost2010PropOp43
 70
     1
102
RTVSPost2010Prop44ColorIndex
 90
        5
102
RTVSPost2010Prop44ColorRGB
 90
      255
102
RTVSPost2010PropOp44
 70
     1
102
RTVSPost2010Prop45
280
     0
102
RTVSPost2010PropOp45
 70
     1
102
RTVSPost2010Prop46
 90
       50
102
RTVSPost2010PropOp46
 70
     1
102
RTVSPost2010Prop47
 90
       50
102
RTVSPost2010PropOp47
 70
     1
102
RTVSPost2010Prop48
 90
       50
102
RTVSPost2010PropOp48
 70
     1
102
RTVSPost2010Prop49
280
     0
102
RTVSPost2010PropOp49
 70
     1
102
RTVSPost2010Prop50
 90
       50
102
RTVSPost2010PropOp50
 70
     1
102
RTVSPost2010Prop51ColorIndex
 90
      256
102
RTVSPost2010Prop51ColorRGB
 90
-16777216
102
RTVSPost2010PropOp51
 70
     0
102
RTVSPost2010Prop52
140
1.0
102
RTVSPost2010PropOp52
 70
     0
102
RTVSPost2010Prop53
 90
        2
102
RTVSPost2010PropOp53
 70
     1
102
RTVSPost2010Prop54
  1
strokes_ogs.tif
102
RTVSPost2010PropOp54
 70
     1
102
RTVSPost2010Prop55
280
     0
102
RTVSPost2010PropOp55
 70
     1
102
RTVSPost2010Prop56
140
1.0
102
RTVSPost2010PropOp56
 70
     1
102
RTVSPost2010Prop57
140
1.0
102
RTVSPost2010PropOp57
 70
     1
102
RTVSPropertyOp0
 70
     1
102
RTVSPropertyOp1
 70
     1
102
RTVSPropertyOp2
 70
     1
102
RTVSPropertyOp3
 70
     1
102
RTVSPropertyOp4
 70
     1
102
RTVSPropertyOp5
 70
     1
102
RTVSPropertyOp6
 70
     1
102
RTVSPropertyOp7
 70
     1
102
RTVSPropertyOp8
 70
     1
102
RTVSPropertyOp9
 70
     1
102
RTVSPropertyOp10
 70
     1
102
RTVSPropertyOp11
 70
     1
102
RTVSPropertyOp12
 70
     1
102
RTVSPropertyOp13
 70
     1
102
RTVSPropertyOp14
 70
     1
102
RTVSPropertyOp15
 70
     1
102
RTVSPropertyOp16
 70
     1
102
RTVSPropertyOp17
 70
     1
102
RTVSPropertyOp18
 70
     1
102
RTVSPropertyOp19
 70
     1
102
RTVSPropertyOp20
 70
     1
102
RTVSPropertyOp21
 70
     1
102
RTVSPropertyOp22
 70
     1
102
RTVSPropertyOp23
 70
     1
102
RTVSPropertyOp24
 70
     1
102
RTVSPropertyOp25
 70
     1
102
RTVSPropertyOp26
 70
     1
102
RTVSPropertyOp27
 70
     1
102
RTVSPropertyOp28
 70
     1
102
RTVSPropertyOp29
 70
     1
102
RTVSPropertyOp30
 70
     1
102
RTVSPropertyOp31
 70
     1
102
RTVSPropertyOp32
 70
     1
102
RTVSPropertyOp33
 70
     1
102
RTVSPropertyOp34
 70
     1
102
RTVSPropertyOp35
 70
     1
102
RTVSPropertyOp36
 70
     1
102
RTVSPropertyOp37
 70
     1
102
RTVSPropertyOp38
 70
     1
102
RTVSPropertyOp39
 70
     1
102
RTVSPropertyOp40
 70
     1
102
RTVSPropertyOp41
 70
     1
102
RTVSPropertyOp42
 70
     1
102
RTVSPropertyOp43
 70
     1
102
RTVSPropertyOp44
 70
     1
102
RTVSPropertyOp45
 70
     1
102
RTVSPropertyOp46
 70
     1
102
RTVSPropertyOp47
 70
     1
102
RTVSPropertyOp48
 70
     1
102
RTVSPropertyOp49
 70
     1
102
RTVSPropertyOp50
 70
     1
102
RTVSPropertyOp51
 70
     0
102
RTVSPropertyOp52
 70
     0
102
RTVSPropertyOp53
 70
     1
102
RTVSPropertyOp54
 70
     1
102
RTVSPropertyOp55
 70
     1
102
RTVSPropertyOp56
 70
     1
102
RTVSPropertyOp57
 70
     1
102
RTVSPropertyOp58
 70
     1
102
RTVSPropertyOp59
 70
     1
102
RTVSPropertyOp60
 70
     1
102
RTVSPropertyOp61
 70
     1
102
RTVSPropertyOp62
 70
     1
  0
XRECORD
  5
954
102
{ACAD_REACTORS
330
953
102
}
330
953
100
AcDbXrecord
280
     1
102
RTVSPost2010Prop28
280
     0
102
RTVSPost2010PropOp28
 70
     1
102
RTVSPost2010Prop29
280
     1
102
RTVSPost2010PropOp29
 70
     1
102
RTVSPost2010Prop30
280
     1
102
RTVSPost2010PropOp30
 70
     1
102
RTVSPost2010Prop31
280
     0
102
RTVSPost2010PropOp31
 70
     1
102
RTVSPost2010Prop32
280
     0
102
RTVSPost2010PropOp32
 70
     1
102
RTVSPost2010Prop33
280
     0
102
RTVSPost2010PropOp33
 70
     1
102
RTVSPost2010Prop34
280
     0
102
RTVSPost2010PropOp34
 70
     1
102
RTVSPost2010Prop35
280
     0
102
RTVSPost2010PropOp35
 70
     1
102
RTVSPost2010Prop36
280
     0
102
RTVSPost2010PropOp36
 70
     1
102
RTVSPost2010Prop37
 90
       50
102
RTVSPost2010PropOp37
 70
     1
102
RTVSPost2010Prop38
140
0.0
102
RTVSPost2010PropOp38
 70
     1
102
RTVSPost2010Prop39
140
1.0
102
RTVSPost2010PropOp39
 70
     1
102
RTVSPost2010Prop40
 90
        0
102
RTVSPost2010PropOp40
 70
     1
102
RTVSPost2010Prop41ColorIndex
 90
       18
102
RTVSPost2010Prop41ColorRGB
 90
        0
102
RTVSPost2010PropOp41
 70
     1
102
RTVSPost2010Prop42
 90
       50
102
RTVSPost2010PropOp42
 70
     1
102
RTVSPost2010Prop43
 90
        3
102
RTVSPost2010PropOp43
 70
     1
102
RTVSPost2010Prop44ColorIndex
 90
        5
102
RTVSPost2010Prop44ColorRGB
 90
      255
102
RTVSPost2010PropOp44
 70
     1
102
RTVSPost2010Prop45
280
     0
102
RTVSPost2010PropOp45
 70
     1
102
RTVSPost2010Prop46
 90
       50
102
RTVSPost2010PropOp46
 70
     1
102
RTVSPost2010Prop47
 90
       50
102
RTVSPost2010PropOp47
 70
     1
102
RTVSPost2010Prop48
 90
       50
102
RTVSPost2010PropOp48
 70
     1
102
RTVSPost2010Prop49
280
     0
102
RTVSPost2010PropOp49
 70
     1
102
RTVSPost2010Prop50
 90
       50
102
RTVSPost2010PropOp50
 70
     1
102
RTVSPost2010Prop51ColorIndex
 90
      256
102
RTVSPost2010Prop51ColorRGB
 90
-16777216
102
RTVSPost2010PropOp51
 70
     0
102
RTVSPost2010Prop52
140
1.0
102
RTVSPost2010PropOp52
 70
     0
102
RTVSPost2010Prop53
 90
        2
102
RTVSPost2010PropOp53
 70
     1
102
RTVSPost2010Prop54
  1
strokes_ogs.tif
102
RTVSPost2010PropOp54
 70
     1
102
RTVSPost2010Prop55
280
     0
102
RTVSPost2010PropOp55
 70
     1
102
RTVSPost2010Prop56
140
1.0
102
RTVSPost2010PropOp56
 70
     1
102
RTVSPost2010Prop57
140
1.0
102
RTVSPost2010PropOp57
 70
     1
102
RTVSPropertyOp0
 70
     1
102
RTVSPropertyOp1
 70
     1
102
RTVSPropertyOp2
 70
     1
102
RTVSPropertyOp3
 70
     1
102
RTVSPropertyOp4
 70
     1
102
RTVSPropertyOp5
 70
     1
102
RTVSPropertyOp6
 70
     1
102
RTVSPropertyOp7
 70
     1
102
RTVSPropertyOp8
 70
     1
102
RTVSPropertyOp9
 70
     1
102
RTVSPropertyOp10
 70
     1
102
RTVSPropertyOp11
 70
     1
102
RTVSPropertyOp12
 70
     1
102
RTVSPropertyOp13
 70
     1
102
RTVSPropertyOp14
 70
     1
102
RTVSPropertyOp15
 70
     1
102
RTVSPropertyOp16
 70
     1
102
RTVSPropertyOp17
 70
     1
102
RTVSPropertyOp18
 70
     1
102
RTVSPropertyOp19
 70
     1
102
RTVSPropertyOp20
 70
     1
102
RTVSPropertyOp21
 70
     1
102
RTVSPropertyOp22
 70
     1
102
RTVSPropertyOp23
 70
     1
102
RTVSPropertyOp24
 70
     1
102
RTVSPropertyOp25
 70
     1
102
RTVSPropertyOp26
 70
     1
102
RTVSPropertyOp27
 70
     1
102
RTVSPropertyOp28
 70
     1
102
RTVSPropertyOp29
 70
     1
102
RTVSPropertyOp30
 70
     1
102
RTVSPropertyOp31
 70
     1
102
RTVSPropertyOp32
 70
     1
102
RTVSPropertyOp33
 70
     1
102
RTVSPropertyOp34
 70
     1
102
RTVSPropertyOp35
 70
     1
102
RTVSPropertyOp36
 70
     1
102
RTVSPropertyOp37
 70
     1
102
RTVSPropertyOp38
 70
     1
102
RTVSPropertyOp39
 70
     1
102
RTVSPropertyOp40
 70
     1
102
RTVSPropertyOp41
 70
     1
102
RTVSPropertyOp42
 70
     1
102
RTVSPropertyOp43
 70
     1
102
RTVSPropertyOp44
 70
     1
102
RTVSPropertyOp45
 70
     1
102
RTVSPropertyOp46
 70
     1
102
RTVSPropertyOp47
 70
     1
102
RTVSPropertyOp48
 70
     1
102
RTVSPropertyOp49
 70
     1
102
RTVSPropertyOp50
 70
     1
102
RTVSPropertyOp51
 70
     0
102
RTVSPropertyOp52
 70
     0
102
RTVSPropertyOp53
 70
     1
102
RTVSPropertyOp54
 70
     1
102
RTVSPropertyOp55
 70
     1
102
RTVSPropertyOp56
 70
     1
102
RTVSPropertyOp57
 70
     1
102
RTVSPropertyOp58
 70
     1
102
RTVSPropertyOp59
 70
     1
102
RTVSPropertyOp60
 70
     1
102
RTVSPropertyOp61
 70
     1
102
RTVSPropertyOp62
 70
     1
  0
XRECORD
  5
95C
102
{ACAD_REACTORS
330
95B
102
}
330
95B
100
AcDbXrecord
280
     1
102
RTVSPost2010Prop28
280
     0
102
RTVSPost2010PropOp28
 70
     1
102
RTVSPost2010Prop29
280
     1
102
RTVSPost2010PropOp29
 70
     1
102
RTVSPost2010Prop30
280
     1
102
RTVSPost2010PropOp30
 70
     1
102
RTVSPost2010Prop31
280
     0
102
RTVSPost2010PropOp31
 70
     1
102
RTVSPost2010Prop32
280
     0
102
RTVSPost2010PropOp32
 70
     1
102
RTVSPost2010Prop33
280
     0
102
RTVSPost2010PropOp33
 70
     1
102
RTVSPost2010Prop34
280
     0
102
RTVSPost2010PropOp34
 70
     1
102
RTVSPost2010Prop35
280
     0
102
RTVSPost2010PropOp35
 70
     1
102
RTVSPost2010Prop36
280
     0
102
RTVSPost2010PropOp36
 70
     1
102
RTVSPost2010Prop37
 90
       50
102
RTVSPost2010PropOp37
 70
     1
102
RTVSPost2010Prop38
140
0.0
102
RTVSPost2010PropOp38
 70
     1
102
RTVSPost2010Prop39
140
1.0
102
RTVSPost2010PropOp39
 70
     1
102
RTVSPost2010Prop40
 90
        0
102
RTVSPost2010PropOp40
 70
     1
102
RTVSPost2010Prop41ColorIndex
 90
       18
102
RTVSPost2010Prop41ColorRGB
 90
        0
102
RTVSPost2010PropOp41
 70
     1
102
RTVSPost2010Prop42
 90
       50
102
RTVSPost2010PropOp42
 70
     1
102
RTVSPost2010Prop43
 90
        3
102
RTVSPost2010PropOp43
 70
     1
102
RTVSPost2010Prop44ColorIndex
 90
        5
102
RTVSPost2010Prop44ColorRGB
 90
      255
102
RTVSPost2010PropOp44
 70
     1
102
RTVSPost2010Prop45
280
     0
102
RTVSPost2010PropOp45
 70
     1
102
RTVSPost2010Prop46
 90
       50
102
RTVSPost2010PropOp46
 70
     1
102
RTVSPost2010Prop47
 90
       50
102
RTVSPost2010PropOp47
 70
     1
102
RTVSPost2010Prop48
 90
       50
102
RTVSPost2010PropOp48
 70
     1
102
RTVSPost2010Prop49
280
     0
102
RTVSPost2010PropOp49
 70
     1
102
RTVSPost2010Prop50
 90
       50
102
RTVSPost2010PropOp50
 70
     1
102
RTVSPost2010Prop51ColorIndex
 90
      256
102
RTVSPost2010Prop51ColorRGB
 90
-16777216
102
RTVSPost2010PropOp51
 70
     0
102
RTVSPost2010Prop52
140
1.0
102
RTVSPost2010PropOp52
 70
     0
102
RTVSPost2010Prop53
 90
        2
102
RTVSPost2010PropOp53
 70
     1
102
RTVSPost2010Prop54
  1
strokes_ogs.tif
102
RTVSPost2010PropOp54
 70
     1
102
RTVSPost2010Prop55
280
     0
102
RTVSPost2010PropOp55
 70
     1
102
RTVSPost2010Prop56
140
1.0
102
RTVSPost2010PropOp56
 70
     1
102
RTVSPost2010Prop57
140
1.0
102
RTVSPost2010PropOp57
 70
     1
102
RTVSPropertyOp0
 70
     1
102
RTVSPropertyOp1
 70
     1
102
RTVSPropertyOp2
 70
     1
102
RTVSPropertyOp3
 70
     1
102
RTVSPropertyOp4
 70
     1
102
RTVSPropertyOp5
 70
     1
102
RTVSPropertyOp6
 70
     1
102
RTVSPropertyOp7
 70
     1
102
RTVSPropertyOp8
 70
     1
102
RTVSPropertyOp9
 70
     1
102
RTVSPropertyOp10
 70
     1
102
RTVSPropertyOp11
 70
     1
102
RTVSPropertyOp12
 70
     1
102
RTVSPropertyOp13
 70
     1
102
RTVSPropertyOp14
 70
     1
102
RTVSPropertyOp15
 70
     1
102
RTVSPropertyOp16
 70
     1
102
RTVSPropertyOp17
 70
     1
102
RTVSPropertyOp18
 70
     1
102
RTVSPropertyOp19
 70
     1
102
RTVSPropertyOp20
 70
     1
102
RTVSPropertyOp21
 70
     1
102
RTVSPropertyOp22
 70
     1
102
RTVSPropertyOp23
 70
     1
102
RTVSPropertyOp24
 70
     1
102
RTVSPropertyOp25
 70
     1
102
RTVSPropertyOp26
 70
     1
102
RTVSPropertyOp27
 70
     1
102
RTVSPropertyOp28
 70
     1
102
RTVSPropertyOp29
 70
     1
102
RTVSPropertyOp30
 70
     1
102
RTVSPropertyOp31
 70
     1
102
RTVSPropertyOp32
 70
     1
102
RTVSPropertyOp33
 70
     1
102
RTVSPropertyOp34
 70
     1
102
RTVSPropertyOp35
 70
     1
102
RTVSPropertyOp36
 70
     1
102
RTVSPropertyOp37
 70
     1
102
RTVSPropertyOp38
 70
     1
102
RTVSPropertyOp39
 70
     1
102
RTVSPropertyOp40
 70
     1
102
RTVSPropertyOp41
 70
     1
102
RTVSPropertyOp42
 70
     1
102
RTVSPropertyOp43
 70
     1
102
RTVSPropertyOp44
 70
     1
102
RTVSPropertyOp45
 70
     1
102
RTVSPropertyOp46
 70
     1
102
RTVSPropertyOp47
 70
     1
102
RTVSPropertyOp48
 70
     1
102
RTVSPropertyOp49
 70
     1
102
RTVSPropertyOp50
 70
     1
102
RTVSPropertyOp51
 70
     0
102
RTVSPropertyOp52
 70
     0
102
RTVSPropertyOp53
 70
     1
102
RTVSPropertyOp54
 70
     1
102
RTVSPropertyOp55
 70
     1
102
RTVSPropertyOp56
 70
     1
102
RTVSPropertyOp57
 70
     1
102
RTVSPropertyOp58
 70
     1
102
RTVSPropertyOp59
 70
     1
102
RTVSPropertyOp60
 70
     1
102
RTVSPropertyOp61
 70
     1
102
RTVSPropertyOp62
 70
     1
  0
XRECORD
  5
978
102
{ACAD_REACTORS
330
977
102
}
330
977
100
AcDbXrecord
280
     1
102
RTVSPost2010Prop28
280
     0
102
RTVSPost2010PropOp28
 70
     1
102
RTVSPost2010Prop29
280
     1
102
RTVSPost2010PropOp29
 70
     1
102
RTVSPost2010Prop30
280
     1
102
RTVSPost2010PropOp30
 70
     1
102
RTVSPost2010Prop31
280
     0
102
RTVSPost2010PropOp31
 70
     1
102
RTVSPost2010Prop32
280
     0
102
RTVSPost2010PropOp32
 70
     1
102
RTVSPost2010Prop33
280
     0
102
RTVSPost2010PropOp33
 70
     1
102
RTVSPost2010Prop34
280
     0
102
RTVSPost2010PropOp34
 70
     1
102
RTVSPost2010Prop35
280
     0
102
RTVSPost2010PropOp35
 70
     1
102
RTVSPost2010Prop36
280
     0
102
RTVSPost2010PropOp36
 70
     1
102
RTVSPost2010Prop37
 90
       50
102
RTVSPost2010PropOp37
 70
     0
102
RTVSPost2010Prop38
140
0.0
102
RTVSPost2010PropOp38
 70
     0
102
RTVSPost2010Prop39
140
1.0
102
RTVSPost2010PropOp39
 70
     0
102
RTVSPost2010Prop40
 90
        0
102
RTVSPost2010PropOp40
 70
     0
102
RTVSPost2010Prop41ColorIndex
 90
       18
102
RTVSPost2010Prop41ColorRGB
 90
        0
102
RTVSPost2010PropOp41
 70
     0
102
RTVSPost2010Prop42
 90
       50
102
RTVSPost2010PropOp42
 70
     0
102
RTVSPost2010Prop43
 90
        3
102
RTVSPost2010PropOp43
 70
     0
102
RTVSPost2010Prop44ColorIndex
 90
        5
102
RTVSPost2010Prop44ColorRGB
 90
      255
102
RTVSPost2010PropOp44
 70
     0
102
RTVSPost2010Prop45
280
     0
102
RTVSPost2010PropOp45
 70
     1
102
RTVSPost2010Prop46
 90
       50
102
RTVSPost2010PropOp46
 70
     0
102
RTVSPost2010Prop47
 90
       50
102
RTVSPost2010PropOp47
 70
     0
102
RTVSPost2010Prop48
 90
       50
102
RTVSPost2010PropOp48
 70
     0
102
RTVSPost2010Prop49
280
     0
102
RTVSPost2010PropOp49
 70
     1
102
RTVSPost2010Prop50
 90
       50
102
RTVSPost2010PropOp50
 70
     0
102
RTVSPost2010Prop51ColorIndex
 90
      256
102
RTVSPost2010Prop51ColorRGB
 90
-16777216
102
RTVSPost2010PropOp51
 70
     0
102
RTVSPost2010Prop52
140
1.0
102
RTVSPost2010PropOp52
 70
     0
102
RTVSPost2010Prop53
 90
        2
102
RTVSPost2010PropOp53
 70
     0
102
RTVSPost2010Prop54
  1
strokes_ogs.tif
102
RTVSPost2010PropOp54
 70
     0
102
RTVSPost2010Prop55
280
     0
102
RTVSPost2010PropOp55
 70
     1
102
RTVSPost2010Prop56
140
1.0
102
RTVSPost2010PropOp56
 70
     0
102
RTVSPost2010Prop57
140
1.0
102
RTVSPost2010PropOp57
 70
     0
102
RTVSPropertyOp0
 70
     0
102
RTVSPropertyOp1
 70
     0
102
RTVSPropertyOp2
 70
     0
102
RTVSPropertyOp3
 70
     0
102
RTVSPropertyOp4
 70
     0
102
RTVSPropertyOp5
 70
     0
102
RTVSPropertyOp6
 70
     0
102
RTVSPropertyOp7
 70
     0
102
RTVSPropertyOp8
 70
     0
102
RTVSPropertyOp9
 70
     0
102
RTVSPropertyOp10
 70
     0
102
RTVSPropertyOp11
 70
     0
102
RTVSPropertyOp12
 70
     0
102
RTVSPropertyOp13
 70
     0
102
RTVSPropertyOp14
 70
     2
102
RTVSPropertyOp15
 70
     0
102
RTVSPropertyOp16
 70
     0
102
RTVSPropertyOp17
 70
     0
102
RTVSPropertyOp18
 70
     0
102
RTVSPropertyOp19
 70
     0
102
RTVSPropertyOp20
 70
     0
102
RTVSPropertyOp21
 70
     0
102
RTVSPropertyOp22
 70
     0
102
RTVSPropertyOp23
 70
     0
102
RTVSPropertyOp24
 70
     0
102
RTVSPropertyOp25
 70
     0
102
RTVSPropertyOp26
 70
     0
102
RTVSPropertyOp27
 70
     0
102
RTVSPropertyOp28
 70
     1
102
RTVSPropertyOp29
 70
     1
102
RTVSPropertyOp30
 70
     1
102
RTVSPropertyOp31
 70
     1
102
RTVSPropertyOp32
 70
     1
102
RTVSPropertyOp33
 70
     1
102
RTVSPropertyOp34
 70
     1
102
RTVSPropertyOp35
 70
     1
102
RTVSPropertyOp36
 70
     1
102
RTVSPropertyOp37
 70
     0
102
RTVSPropertyOp38
 70
     0
102
RTVSPropertyOp39
 70
     0
102
RTVSPropertyOp40
 70
     0
102
RTVSPropertyOp41
 70
     0
102
RTVSPropertyOp42
 70
     0
102
RTVSPropertyOp43
 70
     0
102
RTVSPropertyOp44
 70
     0
102
RTVSPropertyOp45
 70
     1
102
RTVSPropertyOp46
 70
     0
102
RTVSPropertyOp47
 70
     0
102
RTVSPropertyOp48
 70
     0
102
RTVSPropertyOp49
 70
     1
102
RTVSPropertyOp50
 70
     0
102
RTVSPropertyOp51
 70
     0
102
RTVSPropertyOp52
 70
     0
102
RTVSPropertyOp53
 70
     0
102
RTVSPropertyOp54
 70
     0
102
RTVSPropertyOp55
 70
     1
102
RTVSPropertyOp56
 70
     0
102
RTVSPropertyOp57
 70
     0
102
RTVSPropertyOp58
 70
     0
102
RTVSPropertyOp59
 70
     0
102
RTVSPropertyOp60
 70
     0
102
RTVSPropertyOp61
 70
     0
102
RTVSPropertyOp62
 70
     0
  0
XRECORD
  5
968
102
{ACAD_REACTORS
330
967
102
}
330
967
100
AcDbXrecord
280
     1
102
RTVSPost2010Prop28
280
     0
102
RTVSPost2010PropOp28
 70
     1
102
RTVSPost2010Prop29
280
     1
102
RTVSPost2010PropOp29
 70
     1
102
RTVSPost2010Prop30
280
     1
102
RTVSPost2010PropOp30
 70
     1
102
RTVSPost2010Prop31
280
     0
102
RTVSPost2010PropOp31
 70
     1
102
RTVSPost2010Prop32
280
     0
102
RTVSPost2010PropOp32
 70
     1
102
RTVSPost2010Prop33
280
     0
102
RTVSPost2010PropOp33
 70
     1
102
RTVSPost2010Prop34
280
     0
102
RTVSPost2010PropOp34
 70
     1
102
RTVSPost2010Prop35
280
     0
102
RTVSPost2010PropOp35
 70
     1
102
RTVSPost2010Prop36
280
     0
102
RTVSPost2010PropOp36
 70
     1
102
RTVSPost2010Prop37
 90
       50
102
RTVSPost2010PropOp37
 70
     1
102
RTVSPost2010Prop38
140
0.0
102
RTVSPost2010PropOp38
 70
     1
102
RTVSPost2010Prop39
140
1.0
102
RTVSPost2010PropOp39
 70
     1
102
RTVSPost2010Prop40
 90
        0
102
RTVSPost2010PropOp40
 70
     1
102
RTVSPost2010Prop41ColorIndex
 90
       18
102
RTVSPost2010Prop41ColorRGB
 90
        0
102
RTVSPost2010PropOp41
 70
     1
102
RTVSPost2010Prop42
 90
       50
102
RTVSPost2010PropOp42
 70
     1
102
RTVSPost2010Prop43
 90
        3
102
RTVSPost2010PropOp43
 70
     1
102
RTVSPost2010Prop44ColorIndex
 90
        5
102
RTVSPost2010Prop44ColorRGB
 90
      255
102
RTVSPost2010PropOp44
 70
     1
102
RTVSPost2010Prop45
280
     0
102
RTVSPost2010PropOp45
 70
     1
102
RTVSPost2010Prop46
 90
       50
102
RTVSPost2010PropOp46
 70
     1
102
RTVSPost2010Prop47
 90
       50
102
RTVSPost2010PropOp47
 70
     1
102
RTVSPost2010Prop48
 90
       50
102
RTVSPost2010PropOp48
 70
     1
102
RTVSPost2010Prop49
280
     0
102
RTVSPost2010PropOp49
 70
     1
102
RTVSPost2010Prop50
 90
       50
102
RTVSPost2010PropOp50
 70
     1
102
RTVSPost2010Prop51ColorIndex
 90
      256
102
RTVSPost2010Prop51ColorRGB
 90
-16777216
102
RTVSPost2010PropOp51
 70
     0
102
RTVSPost2010Prop52
140
1.0
102
RTVSPost2010PropOp52
 70
     0
102
RTVSPost2010Prop53
 90
        2
102
RTVSPost2010PropOp53
 70
     1
102
RTVSPost2010Prop54
  1
strokes_ogs.tif
102
RTVSPost2010PropOp54
 70
     1
102
RTVSPost2010Prop55
280
     0
102
RTVSPost2010PropOp55
 70
     1
102
RTVSPost2010Prop56
140
1.0
102
RTVSPost2010PropOp56
 70
     1
102
RTVSPost2010Prop57
140
1.0
102
RTVSPost2010PropOp57
 70
     1
102
RTVSPropertyOp0
 70
     1
102
RTVSPropertyOp1
 70
     1
102
RTVSPropertyOp2
 70
     1
102
RTVSPropertyOp3
 70
     1
102
RTVSPropertyOp4
 70
     1
102
RTVSPropertyOp5
 70
     1
102
RTVSPropertyOp6
 70
     1
102
RTVSPropertyOp7
 70
     1
102
RTVSPropertyOp8
 70
     1
102
RTVSPropertyOp9
 70
     1
102
RTVSPropertyOp10
 70
     1
102
RTVSPropertyOp11
 70
     1
102
RTVSPropertyOp12
 70
     1
102
RTVSPropertyOp13
 70
     1
102
RTVSPropertyOp14
 70
     1
102
RTVSPropertyOp15
 70
     1
102
RTVSPropertyOp16
 70
     1
102
RTVSPropertyOp17
 70
     1
102
RTVSPropertyOp18
 70
     1
102
RTVSPropertyOp19
 70
     1
102
RTVSPropertyOp20
 70
     1
102
RTVSPropertyOp21
 70
     1
102
RTVSPropertyOp22
 70
     1
102
RTVSPropertyOp23
 70
     1
102
RTVSPropertyOp24
 70
     1
102
RTVSPropertyOp25
 70
     1
102
RTVSPropertyOp26
 70
     1
102
RTVSPropertyOp27
 70
     1
102
RTVSPropertyOp28
 70
     1
102
RTVSPropertyOp29
 70
     1
102
RTVSPropertyOp30
 70
     1
102
RTVSPropertyOp31
 70
     1
102
RTVSPropertyOp32
 70
     1
102
RTVSPropertyOp33
 70
     1
102
RTVSPropertyOp34
 70
     1
102
RTVSPropertyOp35
 70
     1
102
RTVSPropertyOp36
 70
     1
102
RTVSPropertyOp37
 70
     1
102
RTVSPropertyOp38
 70
     1
102
RTVSPropertyOp39
 70
     1
102
RTVSPropertyOp40
 70
     1
102
RTVSPropertyOp41
 70
     1
102
RTVSPropertyOp42
 70
     1
102
RTVSPropertyOp43
 70
     1
102
RTVSPropertyOp44
 70
     1
102
RTVSPropertyOp45
 70
     1
102
RTVSPropertyOp46
 70
     1
102
RTVSPropertyOp47
 70
     1
102
RTVSPropertyOp48
 70
     1
102
RTVSPropertyOp49
 70
     1
102
RTVSPropertyOp50
 70
     1
102
RTVSPropertyOp51
 70
     0
102
RTVSPropertyOp52
 70
     0
102
RTVSPropertyOp53
 70
     1
102
RTVSPropertyOp54
 70
     1
102
RTVSPropertyOp55
 70
     1
102
RTVSPropertyOp56
 70
     1
102
RTVSPropertyOp57
 70
     1
102
RTVSPropertyOp58
 70
     1
102
RTVSPropertyOp59
 70
     1
102
RTVSPropertyOp60
 70
     1
102
RTVSPropertyOp61
 70
     1
102
RTVSPropertyOp62
 70
     1
  0
XRECORD
  5
97A
102
{ACAD_REACTORS
330
979
102
}
330
979
100
AcDbXrecord
280
     1
102
RTVSPost2010Prop28
280
     0
102
RTVSPost2010PropOp28
 70
     1
102
RTVSPost2010Prop29
280
     1
102
RTVSPost2010PropOp29
 70
     1
102
RTVSPost2010Prop30
280
     1
102
RTVSPost2010PropOp30
 70
     1
102
RTVSPost2010Prop31
280
     0
102
RTVSPost2010PropOp31
 70
     1
102
RTVSPost2010Prop32
280
     0
102
RTVSPost2010PropOp32
 70
     1
102
RTVSPost2010Prop33
280
     0
102
RTVSPost2010PropOp33
 70
     1
102
RTVSPost2010Prop34
280
     0
102
RTVSPost2010PropOp34
 70
     1
102
RTVSPost2010Prop35
280
     0
102
RTVSPost2010PropOp35
 70
     1
102
RTVSPost2010Prop36
280
     0
102
RTVSPost2010PropOp36
 70
     1
102
RTVSPost2010Prop37
 90
       50
102
RTVSPost2010PropOp37
 70
     0
102
RTVSPost2010Prop38
140
0.0
102
RTVSPost2010PropOp38
 70
     0
102
RTVSPost2010Prop39
140
1.0
102
RTVSPost2010PropOp39
 70
     0
102
RTVSPost2010Prop40
 90
        0
102
RTVSPost2010PropOp40
 70
     0
102
RTVSPost2010Prop41ColorIndex
 90
       18
102
RTVSPost2010Prop41ColorRGB
 90
        0
102
RTVSPost2010PropOp41
 70
     0
102
RTVSPost2010Prop42
 90
       50
102
RTVSPost2010PropOp42
 70
     0
102
RTVSPost2010Prop43
 90
        3
102
RTVSPost2010PropOp43
 70
     0
102
RTVSPost2010Prop44ColorIndex
 90
        5
102
RTVSPost2010Prop44ColorRGB
 90
      255
102
RTVSPost2010PropOp44
 70
     0
102
RTVSPost2010Prop45
280
     0
102
RTVSPost2010PropOp45
 70
     1
102
RTVSPost2010Prop46
 90
       50
102
RTVSPost2010PropOp46
 70
     0
102
RTVSPost2010Prop47
 90
       50
102
RTVSPost2010PropOp47
 70
     0
102
RTVSPost2010Prop48
 90
       50
102
RTVSPost2010PropOp48
 70
     0
102
RTVSPost2010Prop49
280
     0
102
RTVSPost2010PropOp49
 70
     1
102
RTVSPost2010Prop50
 90
       50
102
RTVSPost2010PropOp50
 70
     0
102
RTVSPost2010Prop51ColorIndex
 90
      256
102
RTVSPost2010Prop51ColorRGB
 90
-16777216
102
RTVSPost2010PropOp51
 70
     0
102
RTVSPost2010Prop52
140
1.0
102
RTVSPost2010PropOp52
 70
     0
102
RTVSPost2010Prop53
 90
        2
102
RTVSPost2010PropOp53
 70
     0
102
RTVSPost2010Prop54
  1
strokes_ogs.tif
102
RTVSPost2010PropOp54
 70
     0
102
RTVSPost2010Prop55
280
     0
102
RTVSPost2010PropOp55
 70
     1
102
RTVSPost2010Prop56
140
1.0
102
RTVSPost2010PropOp56
 70
     0
102
RTVSPost2010Prop57
140
1.0
102
RTVSPost2010PropOp57
 70
     0
102
RTVSPropertyOp0
 70
     0
102
RTVSPropertyOp1
 70
     0
102
RTVSPropertyOp2
 70
     0
102
RTVSPropertyOp3
 70
     0
102
RTVSPropertyOp4
 70
     0
102
RTVSPropertyOp5
 70
     0
102
RTVSPropertyOp6
 70
     0
102
RTVSPropertyOp7
 70
     0
102
RTVSPropertyOp8
 70
     0
102
RTVSPropertyOp9
 70
     0
102
RTVSPropertyOp10
 70
     0
102
RTVSPropertyOp11
 70
     0
102
RTVSPropertyOp12
 70
     0
102
RTVSPropertyOp13
 70
     0
102
RTVSPropertyOp14
 70
     2
102
RTVSPropertyOp15
 70
     0
102
RTVSPropertyOp16
 70
     0
102
RTVSPropertyOp17
 70
     0
102
RTVSPropertyOp18
 70
     0
102
RTVSPropertyOp19
 70
     0
102
RTVSPropertyOp20
 70
     0
102
RTVSPropertyOp21
 70
     0
102
RTVSPropertyOp22
 70
     0
102
RTVSPropertyOp23
 70
     0
102
RTVSPropertyOp24
 70
     0
102
RTVSPropertyOp25
 70
     0
102
RTVSPropertyOp26
 70
     0
102
RTVSPropertyOp27
 70
     0
102
RTVSPropertyOp28
 70
     1
102
RTVSPropertyOp29
 70
     1
102
RTVSPropertyOp30
 70
     1
102
RTVSPropertyOp31
 70
     1
102
RTVSPropertyOp32
 70
     1
102
RTVSPropertyOp33
 70
     1
102
RTVSPropertyOp34
 70
     1
102
RTVSPropertyOp35
 70
     1
102
RTVSPropertyOp36
 70
     1
102
RTVSPropertyOp37
 70
     0
102
RTVSPropertyOp38
 70
     0
102
RTVSPropertyOp39
 70
     0
102
RTVSPropertyOp40
 70
     0
102
RTVSPropertyOp41
 70
     0
102
RTVSPropertyOp42
 70
     0
102
RTVSPropertyOp43
 70
     0
102
RTVSPropertyOp44
 70
     0
102
RTVSPropertyOp45
 70
     1
102
RTVSPropertyOp46
 70
     0
102
RTVSPropertyOp47
 70
     0
102
RTVSPropertyOp48
 70
     0
102
RTVSPropertyOp49
 70
     1
102
RTVSPropertyOp50
 70
     0
102
RTVSPropertyOp51
 70
     0
102
RTVSPropertyOp52
 70
     0
102
RTVSPropertyOp53
 70
     0
102
RTVSPropertyOp54
 70
     0
102
RTVSPropertyOp55
 70
     1
102
RTVSPropertyOp56
 70
     0
102
RTVSPropertyOp57
 70
     0
102
RTVSPropertyOp58
 70
     0
102
RTVSPropertyOp59
 70
     0
102
RTVSPropertyOp60
 70
     0
102
RTVSPropertyOp61
 70
     0
102
RTVSPropertyOp62
 70
     0
  0
XRECORD
  5
960
102
{ACAD_REACTORS
330
95F
102
}
330
95F
100
AcDbXrecord
280
     1
102
RTVSPost2010Prop28
280
     0
102
RTVSPost2010PropOp28
 70
     1
102
RTVSPost2010Prop29
280
     1
102
RTVSPost2010PropOp29
 70
     1
102
RTVSPost2010Prop30
280
     1
102
RTVSPost2010PropOp30
 70
     1
102
RTVSPost2010Prop31
280
     0
102
RTVSPost2010PropOp31
 70
     1
102
RTVSPost2010Prop32
280
     0
102
RTVSPost2010PropOp32
 70
     1
102
RTVSPost2010Prop33
280
     0
102
RTVSPost2010PropOp33
 70
     1
102
RTVSPost2010Prop34
280
     0
102
RTVSPost2010PropOp34
 70
     1
102
RTVSPost2010Prop35
280
     0
102
RTVSPost2010PropOp35
 70
     1
102
RTVSPost2010Prop36
280
     0
102
RTVSPost2010PropOp36
 70
     1
102
RTVSPost2010Prop37
 90
       50
102
RTVSPost2010PropOp37
 70
     1
102
RTVSPost2010Prop38
140
0.0
102
RTVSPost2010PropOp38
 70
     1
102
RTVSPost2010Prop39
140
1.0
102
RTVSPost2010PropOp39
 70
     1
102
RTVSPost2010Prop40
 90
        0
102
RTVSPost2010PropOp40
 70
     1
102
RTVSPost2010Prop41ColorIndex
 90
       18
102
RTVSPost2010Prop41ColorRGB
 90
        0
102
RTVSPost2010PropOp41
 70
     1
102
RTVSPost2010Prop42
 90
       50
102
RTVSPost2010PropOp42
 70
     1
102
RTVSPost2010Prop43
 90
        3
102
RTVSPost2010PropOp43
 70
     1
102
RTVSPost2010Prop44ColorIndex
 90
        5
102
RTVSPost2010Prop44ColorRGB
 90
      255
102
RTVSPost2010PropOp44
 70
     1
102
RTVSPost2010Prop45
280
     0
102
RTVSPost2010PropOp45
 70
     1
102
RTVSPost2010Prop46
 90
       50
102
RTVSPost2010PropOp46
 70
     1
102
RTVSPost2010Prop47
 90
       50
102
RTVSPost2010PropOp47
 70
     1
102
RTVSPost2010Prop48
 90
       50
102
RTVSPost2010PropOp48
 70
     1
102
RTVSPost2010Prop49
280
     0
102
RTVSPost2010PropOp49
 70
     1
102
RTVSPost2010Prop50
 90
       50
102
RTVSPost2010PropOp50
 70
     1
102
RTVSPost2010Prop51ColorIndex
 90
      256
102
RTVSPost2010Prop51ColorRGB
 90
-16777216
102
RTVSPost2010PropOp51
 70
     0
102
RTVSPost2010Prop52
140
1.0
102
RTVSPost2010PropOp52
 70
     0
102
RTVSPost2010Prop53
 90
        2
102
RTVSPost2010PropOp53
 70
     1
102
RTVSPost2010Prop54
  1
strokes_ogs.tif
102
RTVSPost2010PropOp54
 70
     1
102
RTVSPost2010Prop55
280
     0
102
RTVSPost2010PropOp55
 70
     1
102
RTVSPost2010Prop56
140
1.0
102
RTVSPost2010PropOp56
 70
     1
102
RTVSPost2010Prop57
140
1.0
102
RTVSPost2010PropOp57
 70
     1
102
RTVSPropertyOp0
 70
     1
102
RTVSPropertyOp1
 70
     1
102
RTVSPropertyOp2
 70
     1
102
RTVSPropertyOp3
 70
     1
102
RTVSPropertyOp4
 70
     1
102
RTVSPropertyOp5
 70
     1
102
RTVSPropertyOp6
 70
     1
102
RTVSPropertyOp7
 70
     1
102
RTVSPropertyOp8
 70
     1
102
RTVSPropertyOp9
 70
     1
102
RTVSPropertyOp10
 70
     1
102
RTVSPropertyOp11
 70
     1
102
RTVSPropertyOp12
 70
     1
102
RTVSPropertyOp13
 70
     1
102
RTVSPropertyOp14
 70
     1
102
RTVSPropertyOp15
 70
     1
102
RTVSPropertyOp16
 70
     1
102
RTVSPropertyOp17
 70
     1
102
RTVSPropertyOp18
 70
     1
102
RTVSPropertyOp19
 70
     1
102
RTVSPropertyOp20
 70
     1
102
RTVSPropertyOp21
 70
     1
102
RTVSPropertyOp22
 70
     1
102
RTVSPropertyOp23
 70
     1
102
RTVSPropertyOp24
 70
     1
102
RTVSPropertyOp25
 70
     1
102
RTVSPropertyOp26
 70
     1
102
RTVSPropertyOp27
 70
     1
102
RTVSPropertyOp28
 70
     1
102
RTVSPropertyOp29
 70
     1
102
RTVSPropertyOp30
 70
     1
102
RTVSPropertyOp31
 70
     1
102
RTVSPropertyOp32
 70
     1
102
RTVSPropertyOp33
 70
     1
102
RTVSPropertyOp34
 70
     1
102
RTVSPropertyOp35
 70
     1
102
RTVSPropertyOp36
 70
     1
102
RTVSPropertyOp37
 70
     1
102
RTVSPropertyOp38
 70
     1
102
RTVSPropertyOp39
 70
     1
102
RTVSPropertyOp40
 70
     1
102
RTVSPropertyOp41
 70
     1
102
RTVSPropertyOp42
 70
     1
102
RTVSPropertyOp43
 70
     1
102
RTVSPropertyOp44
 70
     1
102
RTVSPropertyOp45
 70
     1
102
RTVSPropertyOp46
 70
     1
102
RTVSPropertyOp47
 70
     1
102
RTVSPropertyOp48
 70
     1
102
RTVSPropertyOp49
 70
     1
102
RTVSPropertyOp50
 70
     1
102
RTVSPropertyOp51
 70
     0
102
RTVSPropertyOp52
 70
     0
102
RTVSPropertyOp53
 70
     1
102
RTVSPropertyOp54
 70
     1
102
RTVSPropertyOp55
 70
     1
102
RTVSPropertyOp56
 70
     1
102
RTVSPropertyOp57
 70
     1
102
RTVSPropertyOp58
 70
     1
102
RTVSPropertyOp59
 70
     1
102
RTVSPropertyOp60
 70
     1
102
RTVSPropertyOp61
 70
     1
102
RTVSPropertyOp62
 70
     1
  0
XRECORD
  5
976
102
{ACAD_REACTORS
330
975
102
}
330
975
100
AcDbXrecord
280
     1
102
RTVSPost2010Prop28
280
     0
102
RTVSPost2010PropOp28
 70
     1
102
RTVSPost2010Prop29
280
     1
102
RTVSPost2010PropOp29
 70
     1
102
RTVSPost2010Prop30
280
     1
102
RTVSPost2010PropOp30
 70
     1
102
RTVSPost2010Prop31
280
     0
102
RTVSPost2010PropOp31
 70
     1
102
RTVSPost2010Prop32
280
     0
102
RTVSPost2010PropOp32
 70
     1
102
RTVSPost2010Prop33
280
     0
102
RTVSPost2010PropOp33
 70
     1
102
RTVSPost2010Prop34
280
     0
102
RTVSPost2010PropOp34
 70
     1
102
RTVSPost2010Prop35
280
     0
102
RTVSPost2010PropOp35
 70
     1
102
RTVSPost2010Prop36
280
     0
102
RTVSPost2010PropOp36
 70
     1
102
RTVSPost2010Prop37
 90
       50
102
RTVSPost2010PropOp37
 70
     1
102
RTVSPost2010Prop38
140
0.0
102
RTVSPost2010PropOp38
 70
     1
102
RTVSPost2010Prop39
140
1.0
102
RTVSPost2010PropOp39
 70
     1
102
RTVSPost2010Prop40
 90
        0
102
RTVSPost2010PropOp40
 70
     1
102
RTVSPost2010Prop41ColorIndex
 90
       18
102
RTVSPost2010Prop41ColorRGB
 90
        0
102
RTVSPost2010PropOp41
 70
     1
102
RTVSPost2010Prop42
 90
       50
102
RTVSPost2010PropOp42
 70
     1
102
RTVSPost2010Prop43
 90
        3
102
RTVSPost2010PropOp43
 70
     1
102
RTVSPost2010Prop44ColorIndex
 90
        5
102
RTVSPost2010Prop44ColorRGB
 90
      255
102
RTVSPost2010PropOp44
 70
     1
102
RTVSPost2010Prop45
280
     0
102
RTVSPost2010PropOp45
 70
     1
102
RTVSPost2010Prop46
 90
       50
102
RTVSPost2010PropOp46
 70
     1
102
RTVSPost2010Prop47
 90
       50
102
RTVSPost2010PropOp47
 70
     1
102
RTVSPost2010Prop48
 90
       50
102
RTVSPost2010PropOp48
 70
     1
102
RTVSPost2010Prop49
280
     0
102
RTVSPost2010PropOp49
 70
     1
102
RTVSPost2010Prop50
 90
       50
102
RTVSPost2010PropOp50
 70
     1
102
RTVSPost2010Prop51ColorIndex
 90
      256
102
RTVSPost2010Prop51ColorRGB
 90
-16777216
102
RTVSPost2010PropOp51
 70
     0
102
RTVSPost2010Prop52
140
1.0
102
RTVSPost2010PropOp52
 70
     0
102
RTVSPost2010Prop53
 90
        2
102
RTVSPost2010PropOp53
 70
     1
102
RTVSPost2010Prop54
  1
strokes_ogs.tif
102
RTVSPost2010PropOp54
 70
     1
102
RTVSPost2010Prop55
280
     0
102
RTVSPost2010PropOp55
 70
     1
102
RTVSPost2010Prop56
140
1.0
102
RTVSPost2010PropOp56
 70
     1
102
RTVSPost2010Prop57
140
1.0
102
RTVSPost2010PropOp57
 70
     1
102
RTVSPropertyOp0
 70
     1
102
RTVSPropertyOp1
 70
     1
102
RTVSPropertyOp2
 70
     1
102
RTVSPropertyOp3
 70
     1
102
RTVSPropertyOp4
 70
     1
102
RTVSPropertyOp5
 70
     1
102
RTVSPropertyOp6
 70
     1
102
RTVSPropertyOp7
 70
     1
102
RTVSPropertyOp8
 70
     1
102
RTVSPropertyOp9
 70
     1
102
RTVSPropertyOp10
 70
     1
102
RTVSPropertyOp11
 70
     1
102
RTVSPropertyOp12
 70
     1
102
RTVSPropertyOp13
 70
     1
102
RTVSPropertyOp14
 70
     1
102
RTVSPropertyOp15
 70
     1
102
RTVSPropertyOp16
 70
     1
102
RTVSPropertyOp17
 70
     1
102
RTVSPropertyOp18
 70
     1
102
RTVSPropertyOp19
 70
     1
102
RTVSPropertyOp20
 70
     1
102
RTVSPropertyOp21
 70
     1
102
RTVSPropertyOp22
 70
     1
102
RTVSPropertyOp23
 70
     1
102
RTVSPropertyOp24
 70
     1
102
RTVSPropertyOp25
 70
     1
102
RTVSPropertyOp26
 70
     1
102
RTVSPropertyOp27
 70
     1
102
RTVSPropertyOp28
 70
     1
102
RTVSPropertyOp29
 70
     1
102
RTVSPropertyOp30
 70
     1
102
RTVSPropertyOp31
 70
     1
102
RTVSPropertyOp32
 70
     1
102
RTVSPropertyOp33
 70
     1
102
RTVSPropertyOp34
 70
     1
102
RTVSPropertyOp35
 70
     1
102
RTVSPropertyOp36
 70
     1
102
RTVSPropertyOp37
 70
     1
102
RTVSPropertyOp38
 70
     1
102
RTVSPropertyOp39
 70
     1
102
RTVSPropertyOp40
 70
     1
102
RTVSPropertyOp41
 70
     1
102
RTVSPropertyOp42
 70
     1
102
RTVSPropertyOp43
 70
     1
102
RTVSPropertyOp44
 70
     1
102
RTVSPropertyOp45
 70
     1
102
RTVSPropertyOp46
 70
     1
102
RTVSPropertyOp47
 70
     1
102
RTVSPropertyOp48
 70
     1
102
RTVSPropertyOp49
 70
     1
102
RTVSPropertyOp50
 70
     1
102
RTVSPropertyOp51
 70
     0
102
RTVSPropertyOp52
 70
     0
102
RTVSPropertyOp53
 70
     1
102
RTVSPropertyOp54
 70
     1
102
RTVSPropertyOp55
 70
     1
102
RTVSPropertyOp56
 70
     1
102
RTVSPropertyOp57
 70
     1
102
RTVSPropertyOp58
 70
     1
102
RTVSPropertyOp59
 70
     1
102
RTVSPropertyOp60
 70
     1
102
RTVSPropertyOp61
 70
     1
102
RTVSPropertyOp62
 70
     1
  0
XRECORD
  5
974
102
{ACAD_REACTORS
330
973
102
}
330
973
100
AcDbXrecord
280
     1
102
RTVSPost2010Prop28
280
     0
102
RTVSPost2010PropOp28
 70
     1
102
RTVSPost2010Prop29
280
     1
102
RTVSPost2010PropOp29
 70
     1
102
RTVSPost2010Prop30
280
     1
102
RTVSPost2010PropOp30
 70
     1
102
RTVSPost2010Prop31
280
     0
102
RTVSPost2010PropOp31
 70
     1
102
RTVSPost2010Prop32
280
     0
102
RTVSPost2010PropOp32
 70
     1
102
RTVSPost2010Prop33
280
     0
102
RTVSPost2010PropOp33
 70
     1
102
RTVSPost2010Prop34
280
     0
102
RTVSPost2010PropOp34
 70
     1
102
RTVSPost2010Prop35
280
     0
102
RTVSPost2010PropOp35
 70
     1
102
RTVSPost2010Prop36
280
     0
102
RTVSPost2010PropOp36
 70
     1
102
RTVSPost2010Prop37
 90
       50
102
RTVSPost2010PropOp37
 70
     1
102
RTVSPost2010Prop38
140
0.0
102
RTVSPost2010PropOp38
 70
     1
102
RTVSPost2010Prop39
140
1.0
102
RTVSPost2010PropOp39
 70
     1
102
RTVSPost2010Prop40
 90
        0
102
RTVSPost2010PropOp40
 70
     1
102
RTVSPost2010Prop41ColorIndex
 90
       18
102
RTVSPost2010Prop41ColorRGB
 90
        0
102
RTVSPost2010PropOp41
 70
     1
102
RTVSPost2010Prop42
 90
       50
102
RTVSPost2010PropOp42
 70
     1
102
RTVSPost2010Prop43
 90
        3
102
RTVSPost2010PropOp43
 70
     1
102
RTVSPost2010Prop44ColorIndex
 90
        5
102
RTVSPost2010Prop44ColorRGB
 90
      255
102
RTVSPost2010PropOp44
 70
     1
102
RTVSPost2010Prop45
280
     0
102
RTVSPost2010PropOp45
 70
     1
102
RTVSPost2010Prop46
 90
       50
102
RTVSPost2010PropOp46
 70
     1
102
RTVSPost2010Prop47
 90
       50
102
RTVSPost2010PropOp47
 70
     1
102
RTVSPost2010Prop48
 90
       50
102
RTVSPost2010PropOp48
 70
     1
102
RTVSPost2010Prop49
280
     0
102
RTVSPost2010PropOp49
 70
     1
102
RTVSPost2010Prop50
 90
       50
102
RTVSPost2010PropOp50
 70
     1
102
RTVSPost2010Prop51ColorIndex
 90
      256
102
RTVSPost2010Prop51ColorRGB
 90
-16777216
102
RTVSPost2010PropOp51
 70
     0
102
RTVSPost2010Prop52
140
1.0
102
RTVSPost2010PropOp52
 70
     0
102
RTVSPost2010Prop53
 90
        2
102
RTVSPost2010PropOp53
 70
     1
102
RTVSPost2010Prop54
  1
strokes_ogs.tif
102
RTVSPost2010PropOp54
 70
     1
102
RTVSPost2010Prop55
280
     0
102
RTVSPost2010PropOp55
 70
     1
102
RTVSPost2010Prop56
140
1.0
102
RTVSPost2010PropOp56
 70
     1
102
RTVSPost2010Prop57
140
1.0
102
RTVSPost2010PropOp57
 70
     1
102
RTVSPropertyOp0
 70
     1
102
RTVSPropertyOp1
 70
     1
102
RTVSPropertyOp2
 70
     1
102
RTVSPropertyOp3
 70
     1
102
RTVSPropertyOp4
 70
     1
102
RTVSPropertyOp5
 70
     1
102
RTVSPropertyOp6
 70
     1
102
RTVSPropertyOp7
 70
     1
102
RTVSPropertyOp8
 70
     1
102
RTVSPropertyOp9
 70
     1
102
RTVSPropertyOp10
 70
     1
102
RTVSPropertyOp11
 70
     1
102
RTVSPropertyOp12
 70
     1
102
RTVSPropertyOp13
 70
     1
102
RTVSPropertyOp14
 70
     1
102
RTVSPropertyOp15
 70
     1
102
RTVSPropertyOp16
 70
     1
102
RTVSPropertyOp17
 70
     1
102
RTVSPropertyOp18
 70
     1
102
RTVSPropertyOp19
 70
     1
102
RTVSPropertyOp20
 70
     1
102
RTVSPropertyOp21
 70
     1
102
RTVSPropertyOp22
 70
     1
102
RTVSPropertyOp23
 70
     1
102
RTVSPropertyOp24
 70
     1
102
RTVSPropertyOp25
 70
     1
102
RTVSPropertyOp26
 70
     1
102
RTVSPropertyOp27
 70
     1
102
RTVSPropertyOp28
 70
     1
102
RTVSPropertyOp29
 70
     1
102
RTVSPropertyOp30
 70
     1
102
RTVSPropertyOp31
 70
     1
102
RTVSPropertyOp32
 70
     1
102
RTVSPropertyOp33
 70
     1
102
RTVSPropertyOp34
 70
     1
102
RTVSPropertyOp35
 70
     1
102
RTVSPropertyOp36
 70
     1
102
RTVSPropertyOp37
 70
     1
102
RTVSPropertyOp38
 70
     1
102
RTVSPropertyOp39
 70
     1
102
RTVSPropertyOp40
 70
     1
102
RTVSPropertyOp41
 70
     1
102
RTVSPropertyOp42
 70
     1
102
RTVSPropertyOp43
 70
     1
102
RTVSPropertyOp44
 70
     1
102
RTVSPropertyOp45
 70
     1
102
RTVSPropertyOp46
 70
     1
102
RTVSPropertyOp47
 70
     1
102
RTVSPropertyOp48
 70
     1
102
RTVSPropertyOp49
 70
     1
102
RTVSPropertyOp50
 70
     1
102
RTVSPropertyOp51
 70
     0
102
RTVSPropertyOp52
 70
     0
102
RTVSPropertyOp53
 70
     1
102
RTVSPropertyOp54
 70
     1
102
RTVSPropertyOp55
 70
     1
102
RTVSPropertyOp56
 70
     1
102
RTVSPropertyOp57
 70
     1
102
RTVSPropertyOp58
 70
     1
102
RTVSPropertyOp59
 70
     1
102
RTVSPropertyOp60
 70
     1
102
RTVSPropertyOp61
 70
     1
102
RTVSPropertyOp62
 70
     1
  0
XRECORD
  5
96E
102
{ACAD_REACTORS
330
96D
102
}
330
96D
100
AcDbXrecord
280
     1
102
RTVSPost2010Prop28
280
     0
102
RTVSPost2010PropOp28
 70
     1
102
RTVSPost2010Prop29
280
     1
102
RTVSPost2010PropOp29
 70
     1
102
RTVSPost2010Prop30
280
     1
102
RTVSPost2010PropOp30
 70
     1
102
RTVSPost2010Prop31
280
     0
102
RTVSPost2010PropOp31
 70
     1
102
RTVSPost2010Prop32
280
     0
102
RTVSPost2010PropOp32
 70
     1
102
RTVSPost2010Prop33
280
     0
102
RTVSPost2010PropOp33
 70
     1
102
RTVSPost2010Prop34
280
     0
102
RTVSPost2010PropOp34
 70
     1
102
RTVSPost2010Prop35
280
     0
102
RTVSPost2010PropOp35
 70
     1
102
RTVSPost2010Prop36
280
     0
102
RTVSPost2010PropOp36
 70
     1
102
RTVSPost2010Prop37
 90
       50
102
RTVSPost2010PropOp37
 70
     1
102
RTVSPost2010Prop38
140
0.0
102
RTVSPost2010PropOp38
 70
     1
102
RTVSPost2010Prop39
140
1.0
102
RTVSPost2010PropOp39
 70
     1
102
RTVSPost2010Prop40
 90
        0
102
RTVSPost2010PropOp40
 70
     1
102
RTVSPost2010Prop41ColorIndex
 90
       18
102
RTVSPost2010Prop41ColorRGB
 90
        0
102
RTVSPost2010PropOp41
 70
     1
102
RTVSPost2010Prop42
 90
       50
102
RTVSPost2010PropOp42
 70
     1
102
RTVSPost2010Prop43
 90
        3
102
RTVSPost2010PropOp43
 70
     1
102
RTVSPost2010Prop44ColorIndex
 90
        5
102
RTVSPost2010Prop44ColorRGB
 90
      255
102
RTVSPost2010PropOp44
 70
     1
102
RTVSPost2010Prop45
280
     0
102
RTVSPost2010PropOp45
 70
     1
102
RTVSPost2010Prop46
 90
       50
102
RTVSPost2010PropOp46
 70
     1
102
RTVSPost2010Prop47
 90
       50
102
RTVSPost2010PropOp47
 70
     1
102
RTVSPost2010Prop48
 90
       50
102
RTVSPost2010PropOp48
 70
     1
102
RTVSPost2010Prop49
280
     0
102
RTVSPost2010PropOp49
 70
     1
102
RTVSPost2010Prop50
 90
       50
102
RTVSPost2010PropOp50
 70
     1
102
RTVSPost2010Prop51ColorIndex
 90
      256
102
RTVSPost2010Prop51ColorRGB
 90
-16777216
102
RTVSPost2010PropOp51
 70
     0
102
RTVSPost2010Prop52
140
1.0
102
RTVSPost2010PropOp52
 70
     0
102
RTVSPost2010Prop53
 90
        2
102
RTVSPost2010PropOp53
 70
     1
102
RTVSPost2010Prop54
  1
strokes_ogs.tif
102
RTVSPost2010PropOp54
 70
     1
102
RTVSPost2010Prop55
280
     0
102
RTVSPost2010PropOp55
 70
     1
102
RTVSPost2010Prop56
140
1.0
102
RTVSPost2010PropOp56
 70
     1
102
RTVSPost2010Prop57
140
1.0
102
RTVSPost2010PropOp57
 70
     1
102
RTVSPropertyOp0
 70
     1
102
RTVSPropertyOp1
 70
     1
102
RTVSPropertyOp2
 70
     1
102
RTVSPropertyOp3
 70
     1
102
RTVSPropertyOp4
 70
     1
102
RTVSPropertyOp5
 70
     1
102
RTVSPropertyOp6
 70
     1
102
RTVSPropertyOp7
 70
     1
102
RTVSPropertyOp8
 70
     1
102
RTVSPropertyOp9
 70
     1
102
RTVSPropertyOp10
 70
     1
102
RTVSPropertyOp11
 70
     1
102
RTVSPropertyOp12
 70
     1
102
RTVSPropertyOp13
 70
     1
102
RTVSPropertyOp14
 70
     1
102
RTVSPropertyOp15
 70
     1
102
RTVSPropertyOp16
 70
     1
102
RTVSPropertyOp17
 70
     1
102
RTVSPropertyOp18
 70
     1
102
RTVSPropertyOp19
 70
     1
102
RTVSPropertyOp20
 70
     1
102
RTVSPropertyOp21
 70
     1
102
RTVSPropertyOp22
 70
     1
102
RTVSPropertyOp23
 70
     1
102
RTVSPropertyOp24
 70
     1
102
RTVSPropertyOp25
 70
     1
102
RTVSPropertyOp26
 70
     1
102
RTVSPropertyOp27
 70
     1
102
RTVSPropertyOp28
 70
     1
102
RTVSPropertyOp29
 70
     1
102
RTVSPropertyOp30
 70
     1
102
RTVSPropertyOp31
 70
     1
102
RTVSPropertyOp32
 70
     1
102
RTVSPropertyOp33
 70
     1
102
RTVSPropertyOp34
 70
     1
102
RTVSPropertyOp35
 70
     1
102
RTVSPropertyOp36
 70
     1
102
RTVSPropertyOp37
 70
     1
102
RTVSPropertyOp38
 70
     1
102
RTVSPropertyOp39
 70
     1
102
RTVSPropertyOp40
 70
     1
102
RTVSPropertyOp41
 70
     1
102
RTVSPropertyOp42
 70
     1
102
RTVSPropertyOp43
 70
     1
102
RTVSPropertyOp44
 70
     1
102
RTVSPropertyOp45
 70
     1
102
RTVSPropertyOp46
 70
     1
102
RTVSPropertyOp47
 70
     1
102
RTVSPropertyOp48
 70
     1
102
RTVSPropertyOp49
 70
     1
102
RTVSPropertyOp50
 70
     1
102
RTVSPropertyOp51
 70
     0
102
RTVSPropertyOp52
 70
     0
102
RTVSPropertyOp53
 70
     1
102
RTVSPropertyOp54
 70
     1
102
RTVSPropertyOp55
 70
     1
102
RTVSPropertyOp56
 70
     1
102
RTVSPropertyOp57
 70
     1
102
RTVSPropertyOp58
 70
     1
102
RTVSPropertyOp59
 70
     1
102
RTVSPropertyOp60
 70
     1
102
RTVSPropertyOp61
 70
     1
102
RTVSPropertyOp62
 70
     1
  0
XRECORD
  5
970
102
{ACAD_REACTORS
330
96F
102
}
330
96F
100
AcDbXrecord
280
     1
102
RTVSPost2010Prop28
280
     0
102
RTVSPost2010PropOp28
 70
     1
102
RTVSPost2010Prop29
280
     1
102
RTVSPost2010PropOp29
 70
     1
102
RTVSPost2010Prop30
280
     1
102
RTVSPost2010PropOp30
 70
     1
102
RTVSPost2010Prop31
280
     0
102
RTVSPost2010PropOp31
 70
     1
102
RTVSPost2010Prop32
280
     0
102
RTVSPost2010PropOp32
 70
     1
102
RTVSPost2010Prop33
280
     0
102
RTVSPost2010PropOp33
 70
     1
102
RTVSPost2010Prop34
280
     0
102
RTVSPost2010PropOp34
 70
     1
102
RTVSPost2010Prop35
280
     0
102
RTVSPost2010PropOp35
 70
     1
102
RTVSPost2010Prop36
280
     0
102
RTVSPost2010PropOp36
 70
     1
102
RTVSPost2010Prop37
 90
       50
102
RTVSPost2010PropOp37
 70
     1
102
RTVSPost2010Prop38
140
0.0
102
RTVSPost2010PropOp38
 70
     1
102
RTVSPost2010Prop39
140
1.0
102
RTVSPost2010PropOp39
 70
     1
102
RTVSPost2010Prop40
 90
        0
102
RTVSPost2010PropOp40
 70
     1
102
RTVSPost2010Prop41ColorIndex
 90
       18
102
RTVSPost2010Prop41ColorRGB
 90
        0
102
RTVSPost2010PropOp41
 70
     1
102
RTVSPost2010Prop42
 90
       50
102
RTVSPost2010PropOp42
 70
     1
102
RTVSPost2010Prop43
 90
        3
102
RTVSPost2010PropOp43
 70
     1
102
RTVSPost2010Prop44ColorIndex
 90
        5
102
RTVSPost2010Prop44ColorRGB
 90
      255
102
RTVSPost2010PropOp44
 70
     1
102
RTVSPost2010Prop45
280
     0
102
RTVSPost2010PropOp45
 70
     1
102
RTVSPost2010Prop46
 90
       50
102
RTVSPost2010PropOp46
 70
     1
102
RTVSPost2010Prop47
 90
       50
102
RTVSPost2010PropOp47
 70
     1
102
RTVSPost2010Prop48
 90
       50
102
RTVSPost2010PropOp48
 70
     1
102
RTVSPost2010Prop49
280
     0
102
RTVSPost2010PropOp49
 70
     1
102
RTVSPost2010Prop50
 90
       50
102
RTVSPost2010PropOp50
 70
     1
102
RTVSPost2010Prop51ColorIndex
 90
      256
102
RTVSPost2010Prop51ColorRGB
 90
-16777216
102
RTVSPost2010PropOp51
 70
     0
102
RTVSPost2010Prop52
140
1.0
102
RTVSPost2010PropOp52
 70
     0
102
RTVSPost2010Prop53
 90
        2
102
RTVSPost2010PropOp53
 70
     1
102
RTVSPost2010Prop54
  1
strokes_ogs.tif
102
RTVSPost2010PropOp54
 70
     1
102
RTVSPost2010Prop55
280
     0
102
RTVSPost2010PropOp55
 70
     1
102
RTVSPost2010Prop56
140
1.0
102
RTVSPost2010PropOp56
 70
     1
102
RTVSPost2010Prop57
140
1.0
102
RTVSPost2010PropOp57
 70
     1
102
RTVSPropertyOp0
 70
     1
102
RTVSPropertyOp1
 70
     1
102
RTVSPropertyOp2
 70
     1
102
RTVSPropertyOp3
 70
     1
102
RTVSPropertyOp4
 70
     1
102
RTVSPropertyOp5
 70
     1
102
RTVSPropertyOp6
 70
     1
102
RTVSPropertyOp7
 70
     1
102
RTVSPropertyOp8
 70
     1
102
RTVSPropertyOp9
 70
     1
102
RTVSPropertyOp10
 70
     1
102
RTVSPropertyOp11
 70
     1
102
RTVSPropertyOp12
 70
     1
102
RTVSPropertyOp13
 70
     1
102
RTVSPropertyOp14
 70
     1
102
RTVSPropertyOp15
 70
     1
102
RTVSPropertyOp16
 70
     1
102
RTVSPropertyOp17
 70
     1
102
RTVSPropertyOp18
 70
     1
102
RTVSPropertyOp19
 70
     1
102
RTVSPropertyOp20
 70
     1
102
RTVSPropertyOp21
 70
     1
102
RTVSPropertyOp22
 70
     1
102
RTVSPropertyOp23
 70
     1
102
RTVSPropertyOp24
 70
     1
102
RTVSPropertyOp25
 70
     1
102
RTVSPropertyOp26
 70
     1
102
RTVSPropertyOp27
 70
     1
102
RTVSPropertyOp28
 70
     1
102
RTVSPropertyOp29
 70
     1
102
RTVSPropertyOp30
 70
     1
102
RTVSPropertyOp31
 70
     1
102
RTVSPropertyOp32
 70
     1
102
RTVSPropertyOp33
 70
     1
102
RTVSPropertyOp34
 70
     1
102
RTVSPropertyOp35
 70
     1
102
RTVSPropertyOp36
 70
     1
102
RTVSPropertyOp37
 70
     1
102
RTVSPropertyOp38
 70
     1
102
RTVSPropertyOp39
 70
     1
102
RTVSPropertyOp40
 70
     1
102
RTVSPropertyOp41
 70
     1
102
RTVSPropertyOp42
 70
     1
102
RTVSPropertyOp43
 70
     1
102
RTVSPropertyOp44
 70
     1
102
RTVSPropertyOp45
 70
     1
102
RTVSPropertyOp46
 70
     1
102
RTVSPropertyOp47
 70
     1
102
RTVSPropertyOp48
 70
     1
102
RTVSPropertyOp49
 70
     1
102
RTVSPropertyOp50
 70
     1
102
RTVSPropertyOp51
 70
     0
102
RTVSPropertyOp52
 70
     0
102
RTVSPropertyOp53
 70
     1
102
RTVSPropertyOp54
 70
     1
102
RTVSPropertyOp55
 70
     1
102
RTVSPropertyOp56
 70
     1
102
RTVSPropertyOp57
 70
     1
102
RTVSPropertyOp58
 70
     1
102
RTVSPropertyOp59
 70
     1
102
RTVSPropertyOp60
 70
     1
102
RTVSPropertyOp61
 70
     1
102
RTVSPropertyOp62
 70
     1
  0
XRECORD
  5
966
102
{ACAD_REACTORS
330
965
102
}
330
965
100
AcDbXrecord
280
     1
102
RTVSPost2010Prop28
280
     0
102
RTVSPost2010PropOp28
 70
     1
102
RTVSPost2010Prop29
280
     1
102
RTVSPost2010PropOp29
 70
     1
102
RTVSPost2010Prop30
280
     1
102
RTVSPost2010PropOp30
 70
     1
102
RTVSPost2010Prop31
280
     0
102
RTVSPost2010PropOp31
 70
     1
102
RTVSPost2010Prop32
280
     0
102
RTVSPost2010PropOp32
 70
     1
102
RTVSPost2010Prop33
280
     0
102
RTVSPost2010PropOp33
 70
     1
102
RTVSPost2010Prop34
280
     0
102
RTVSPost2010PropOp34
 70
     1
102
RTVSPost2010Prop35
280
     0
102
RTVSPost2010PropOp35
 70
     1
102
RTVSPost2010Prop36
280
     0
102
RTVSPost2010PropOp36
 70
     1
102
RTVSPost2010Prop37
 90
       50
102
RTVSPost2010PropOp37
 70
     1
102
RTVSPost2010Prop38
140
0.0
102
RTVSPost2010PropOp38
 70
     1
102
RTVSPost2010Prop39
140
1.0
102
RTVSPost2010PropOp39
 70
     1
102
RTVSPost2010Prop40
 90
        0
102
RTVSPost2010PropOp40
 70
     1
102
RTVSPost2010Prop41ColorIndex
 90
       18
102
RTVSPost2010Prop41ColorRGB
 90
        0
102
RTVSPost2010PropOp41
 70
     1
102
RTVSPost2010Prop42
 90
       50
102
RTVSPost2010PropOp42
 70
     1
102
RTVSPost2010Prop43
 90
        3
102
RTVSPost2010PropOp43
 70
     1
102
RTVSPost2010Prop44ColorIndex
 90
        5
102
RTVSPost2010Prop44ColorRGB
 90
      255
102
RTVSPost2010PropOp44
 70
     1
102
RTVSPost2010Prop45
280
     0
102
RTVSPost2010PropOp45
 70
     1
102
RTVSPost2010Prop46
 90
       50
102
RTVSPost2010PropOp46
 70
     1
102
RTVSPost2010Prop47
 90
       50
102
RTVSPost2010PropOp47
 70
     1
102
RTVSPost2010Prop48
 90
       50
102
RTVSPost2010PropOp48
 70
     1
102
RTVSPost2010Prop49
280
     0
102
RTVSPost2010PropOp49
 70
     1
102
RTVSPost2010Prop50
 90
       50
102
RTVSPost2010PropOp50
 70
     1
102
RTVSPost2010Prop51ColorIndex
 90
      256
102
RTVSPost2010Prop51ColorRGB
 90
-16777216
102
RTVSPost2010PropOp51
 70
     0
102
RTVSPost2010Prop52
140
1.0
102
RTVSPost2010PropOp52
 70
     0
102
RTVSPost2010Prop53
 90
        2
102
RTVSPost2010PropOp53
 70
     1
102
RTVSPost2010Prop54
  1
strokes_ogs.tif
102
RTVSPost2010PropOp54
 70
     1
102
RTVSPost2010Prop55
280
     0
102
RTVSPost2010PropOp55
 70
     1
102
RTVSPost2010Prop56
140
1.0
102
RTVSPost2010PropOp56
 70
     1
102
RTVSPost2010Prop57
140
1.0
102
RTVSPost2010PropOp57
 70
     1
102
RTVSPropertyOp0
 70
     1
102
RTVSPropertyOp1
 70
     1
102
RTVSPropertyOp2
 70
     1
102
RTVSPropertyOp3
 70
     1
102
RTVSPropertyOp4
 70
     1
102
RTVSPropertyOp5
 70
     1
102
RTVSPropertyOp6
 70
     1
102
RTVSPropertyOp7
 70
     1
102
RTVSPropertyOp8
 70
     1
102
RTVSPropertyOp9
 70
     1
102
RTVSPropertyOp10
 70
     1
102
RTVSPropertyOp11
 70
     1
102
RTVSPropertyOp12
 70
     1
102
RTVSPropertyOp13
 70
     1
102
RTVSPropertyOp14
 70
     1
102
RTVSPropertyOp15
 70
     1
102
RTVSPropertyOp16
 70
     1
102
RTVSPropertyOp17
 70
     1
102
RTVSPropertyOp18
 70
     1
102
RTVSPropertyOp19
 70
     1
102
RTVSPropertyOp20
 70
     1
102
RTVSPropertyOp21
 70
     1
102
RTVSPropertyOp22
 70
     1
102
RTVSPropertyOp23
 70
     1
102
RTVSPropertyOp24
 70
     1
102
RTVSPropertyOp25
 70
     1
102
RTVSPropertyOp26
 70
     1
102
RTVSPropertyOp27
 70
     1
102
RTVSPropertyOp28
 70
     1
102
RTVSPropertyOp29
 70
     1
102
RTVSPropertyOp30
 70
     1
102
RTVSPropertyOp31
 70
     1
102
RTVSPropertyOp32
 70
     1
102
RTVSPropertyOp33
 70
     1
102
RTVSPropertyOp34
 70
     1
102
RTVSPropertyOp35
 70
     1
102
RTVSPropertyOp36
 70
     1
102
RTVSPropertyOp37
 70
     1
102
RTVSPropertyOp38
 70
     1
102
RTVSPropertyOp39
 70
     1
102
RTVSPropertyOp40
 70
     1
102
RTVSPropertyOp41
 70
     1
102
RTVSPropertyOp42
 70
     1
102
RTVSPropertyOp43
 70
     1
102
RTVSPropertyOp44
 70
     1
102
RTVSPropertyOp45
 70
     1
102
RTVSPropertyOp46
 70
     1
102
RTVSPropertyOp47
 70
     1
102
RTVSPropertyOp48
 70
     1
102
RTVSPropertyOp49
 70
     1
102
RTVSPropertyOp50
 70
     1
102
RTVSPropertyOp51
 70
     0
102
RTVSPropertyOp52
 70
     0
102
RTVSPropertyOp53
 70
     1
102
RTVSPropertyOp54
 70
     1
102
RTVSPropertyOp55
 70
     1
102
RTVSPropertyOp56
 70
     1
102
RTVSPropertyOp57
 70
     1
102
RTVSPropertyOp58
 70
     1
102
RTVSPropertyOp59
 70
     1
102
RTVSPropertyOp60
 70
     1
102
RTVSPropertyOp61
 70
     1
102
RTVSPropertyOp62
 70
     1
  0
XRECORD
  5
95A
102
{ACAD_REACTORS
330
959
102
}
330
959
100
AcDbXrecord
280
     1
102
RTVSPost2010Prop28
280
     0
102
RTVSPost2010PropOp28
 70
     1
102
RTVSPost2010Prop29
280
     1
102
RTVSPost2010PropOp29
 70
     1
102
RTVSPost2010Prop30
280
     1
102
RTVSPost2010PropOp30
 70
     1
102
RTVSPost2010Prop31
280
     0
102
RTVSPost2010PropOp31
 70
     1
102
RTVSPost2010Prop32
280
     0
102
RTVSPost2010PropOp32
 70
     1
102
RTVSPost2010Prop33
280
     0
102
RTVSPost2010PropOp33
 70
     1
102
RTVSPost2010Prop34
280
     0
102
RTVSPost2010PropOp34
 70
     1
102
RTVSPost2010Prop35
280
     0
102
RTVSPost2010PropOp35
 70
     1
102
RTVSPost2010Prop36
280
     0
102
RTVSPost2010PropOp36
 70
     1
102
RTVSPost2010Prop37
 90
       50
102
RTVSPost2010PropOp37
 70
     1
102
RTVSPost2010Prop38
140
0.0
102
RTVSPost2010PropOp38
 70
     1
102
RTVSPost2010Prop39
140
1.0
102
RTVSPost2010PropOp39
 70
     1
102
RTVSPost2010Prop40
 90
        0
102
RTVSPost2010PropOp40
 70
     1
102
RTVSPost2010Prop41ColorIndex
 90
       18
102
RTVSPost2010Prop41ColorRGB
 90
        0
102
RTVSPost2010PropOp41
 70
     1
102
RTVSPost2010Prop42
 90
       50
102
RTVSPost2010PropOp42
 70
     1
102
RTVSPost2010Prop43
 90
        3
102
RTVSPost2010PropOp43
 70
     1
102
RTVSPost2010Prop44ColorIndex
 90
        5
102
RTVSPost2010Prop44ColorRGB
 90
      255
102
RTVSPost2010PropOp44
 70
     1
102
RTVSPost2010Prop45
280
     0
102
RTVSPost2010PropOp45
 70
     1
102
RTVSPost2010Prop46
 90
       50
102
RTVSPost2010PropOp46
 70
     1
102
RTVSPost2010Prop47
 90
       50
102
RTVSPost2010PropOp47
 70
     1
102
RTVSPost2010Prop48
 90
       50
102
RTVSPost2010PropOp48
 70
     1
102
RTVSPost2010Prop49
280
     0
102
RTVSPost2010PropOp49
 70
     1
102
RTVSPost2010Prop50
 90
       50
102
RTVSPost2010PropOp50
 70
     1
102
RTVSPost2010Prop51ColorIndex
 90
      256
102
RTVSPost2010Prop51ColorRGB
 90
-16777216
102
RTVSPost2010PropOp51
 70
     0
102
RTVSPost2010Prop52
140
1.0
102
RTVSPost2010PropOp52
 70
     0
102
RTVSPost2010Prop53
 90
        2
102
RTVSPost2010PropOp53
 70
     1
102
RTVSPost2010Prop54
  1
strokes_ogs.tif
102
RTVSPost2010PropOp54
 70
     1
102
RTVSPost2010Prop55
280
     0
102
RTVSPost2010PropOp55
 70
     1
102
RTVSPost2010Prop56
140
1.0
102
RTVSPost2010PropOp56
 70
     1
102
RTVSPost2010Prop57
140
1.0
102
RTVSPost2010PropOp57
 70
     1
102
RTVSPropertyOp0
 70
     1
102
RTVSPropertyOp1
 70
     1
102
RTVSPropertyOp2
 70
     1
102
RTVSPropertyOp3
 70
     1
102
RTVSPropertyOp4
 70
     1
102
RTVSPropertyOp5
 70
     1
102
RTVSPropertyOp6
 70
     1
102
RTVSPropertyOp7
 70
     1
102
RTVSPropertyOp8
 70
     1
102
RTVSPropertyOp9
 70
     1
102
RTVSPropertyOp10
 70
     1
102
RTVSPropertyOp11
 70
     1
102
RTVSPropertyOp12
 70
     1
102
RTVSPropertyOp13
 70
     1
102
RTVSPropertyOp14
 70
     1
102
RTVSPropertyOp15
 70
     1
102
RTVSPropertyOp16
 70
     1
102
RTVSPropertyOp17
 70
     1
102
RTVSPropertyOp18
 70
     1
102
RTVSPropertyOp19
 70
     1
102
RTVSPropertyOp20
 70
     1
102
RTVSPropertyOp21
 70
     1
102
RTVSPropertyOp22
 70
     1
102
RTVSPropertyOp23
 70
     1
102
RTVSPropertyOp24
 70
     1
102
RTVSPropertyOp25
 70
     1
102
RTVSPropertyOp26
 70
     1
102
RTVSPropertyOp27
 70
     1
102
RTVSPropertyOp28
 70
     1
102
RTVSPropertyOp29
 70
     1
102
RTVSPropertyOp30
 70
     1
102
RTVSPropertyOp31
 70
     1
102
RTVSPropertyOp32
 70
     1
102
RTVSPropertyOp33
 70
     1
102
RTVSPropertyOp34
 70
     1
102
RTVSPropertyOp35
 70
     1
102
RTVSPropertyOp36
 70
     1
102
RTVSPropertyOp37
 70
     1
102
RTVSPropertyOp38
 70
     1
102
RTVSPropertyOp39
 70
     1
102
RTVSPropertyOp40
 70
     1
102
RTVSPropertyOp41
 70
     1
102
RTVSPropertyOp42
 70
     1
102
RTVSPropertyOp43
 70
     1
102
RTVSPropertyOp44
 70
     1
102
RTVSPropertyOp45
 70
     1
102
RTVSPropertyOp46
 70
     1
102
RTVSPropertyOp47
 70
     1
102
RTVSPropertyOp48
 70
     1
102
RTVSPropertyOp49
 70
     1
102
RTVSPropertyOp50
 70
     1
102
RTVSPropertyOp51
 70
     0
102
RTVSPropertyOp52
 70
     0
102
RTVSPropertyOp53
 70
     1
102
RTVSPropertyOp54
 70
     1
102
RTVSPropertyOp55
 70
     1
102
RTVSPropertyOp56
 70
     1
102
RTVSPropertyOp57
 70
     1
102
RTVSPropertyOp58
 70
     1
102
RTVSPropertyOp59
 70
     1
102
RTVSPropertyOp60
 70
     1
102
RTVSPropertyOp61
 70
     1
102
RTVSPropertyOp62
 70
     1
  0
XRECORD
  5
972
102
{ACAD_REACTORS
330
971
102
}
330
971
100
AcDbXrecord
280
     1
102
RTVSPost2010Prop28
280
     0
102
RTVSPost2010PropOp28
 70
     1
102
RTVSPost2010Prop29
280
     1
102
RTVSPost2010PropOp29
 70
     1
102
RTVSPost2010Prop30
280
     1
102
RTVSPost2010PropOp30
 70
     1
102
RTVSPost2010Prop31
280
     0
102
RTVSPost2010PropOp31
 70
     1
102
RTVSPost2010Prop32
280
     0
102
RTVSPost2010PropOp32
 70
     1
102
RTVSPost2010Prop33
280
     0
102
RTVSPost2010PropOp33
 70
     1
102
RTVSPost2010Prop34
280
     0
102
RTVSPost2010PropOp34
 70
     1
102
RTVSPost2010Prop35
280
     0
102
RTVSPost2010PropOp35
 70
     1
102
RTVSPost2010Prop36
280
     0
102
RTVSPost2010PropOp36
 70
     1
102
RTVSPost2010Prop37
 90
       50
102
RTVSPost2010PropOp37
 70
     1
102
RTVSPost2010Prop38
140
0.0
102
RTVSPost2010PropOp38
 70
     1
102
RTVSPost2010Prop39
140
1.0
102
RTVSPost2010PropOp39
 70
     1
102
RTVSPost2010Prop40
 90
        0
102
RTVSPost2010PropOp40
 70
     1
102
RTVSPost2010Prop41ColorIndex
 90
       18
102
RTVSPost2010Prop41ColorRGB
 90
        0
102
RTVSPost2010PropOp41
 70
     1
102
RTVSPost2010Prop42
 90
       50
102
RTVSPost2010PropOp42
 70
     1
102
RTVSPost2010Prop43
 90
        3
102
RTVSPost2010PropOp43
 70
     1
102
RTVSPost2010Prop44ColorIndex
 90
        5
102
RTVSPost2010Prop44ColorRGB
 90
      255
102
RTVSPost2010PropOp44
 70
     1
102
RTVSPost2010Prop45
280
     0
102
RTVSPost2010PropOp45
 70
     1
102
RTVSPost2010Prop46
 90
       50
102
RTVSPost2010PropOp46
 70
     1
102
RTVSPost2010Prop47
 90
       50
102
RTVSPost2010PropOp47
 70
     1
102
RTVSPost2010Prop48
 90
       50
102
RTVSPost2010PropOp48
 70
     1
102
RTVSPost2010Prop49
280
     0
102
RTVSPost2010PropOp49
 70
     1
102
RTVSPost2010Prop50
 90
       50
102
RTVSPost2010PropOp50
 70
     1
102
RTVSPost2010Prop51ColorIndex
 90
      256
102
RTVSPost2010Prop51ColorRGB
 90
-16777216
102
RTVSPost2010PropOp51
 70
     0
102
RTVSPost2010Prop52
140
1.0
102
RTVSPost2010PropOp52
 70
     0
102
RTVSPost2010Prop53
 90
        2
102
RTVSPost2010PropOp53
 70
     1
102
RTVSPost2010Prop54
  1
strokes_ogs.tif
102
RTVSPost2010PropOp54
 70
     1
102
RTVSPost2010Prop55
280
     0
102
RTVSPost2010PropOp55
 70
     1
102
RTVSPost2010Prop56
140
1.0
102
RTVSPost2010PropOp56
 70
     1
102
RTVSPost2010Prop57
140
1.0
102
RTVSPost2010PropOp57
 70
     1
102
RTVSPropertyOp0
 70
     1
102
RTVSPropertyOp1
 70
     1
102
RTVSPropertyOp2
 70
     1
102
RTVSPropertyOp3
 70
     1
102
RTVSPropertyOp4
 70
     1
102
RTVSPropertyOp5
 70
     1
102
RTVSPropertyOp6
 70
     1
102
RTVSPropertyOp7
 70
     1
102
RTVSPropertyOp8
 70
     1
102
RTVSPropertyOp9
 70
     1
102
RTVSPropertyOp10
 70
     1
102
RTVSPropertyOp11
 70
     1
102
RTVSPropertyOp12
 70
     1
102
RTVSPropertyOp13
 70
     1
102
RTVSPropertyOp14
 70
     1
102
RTVSPropertyOp15
 70
     1
102
RTVSPropertyOp16
 70
     1
102
RTVSPropertyOp17
 70
     1
102
RTVSPropertyOp18
 70
     1
102
RTVSPropertyOp19
 70
     1
102
RTVSPropertyOp20
 70
     1
102
RTVSPropertyOp21
 70
     1
102
RTVSPropertyOp22
 70
     1
102
RTVSPropertyOp23
 70
     1
102
RTVSPropertyOp24
 70
     1
102
RTVSPropertyOp25
 70
     1
102
RTVSPropertyOp26
 70
     1
102
RTVSPropertyOp27
 70
     1
102
RTVSPropertyOp28
 70
     1
102
RTVSPropertyOp29
 70
     1
102
RTVSPropertyOp30
 70
     1
102
RTVSPropertyOp31
 70
     1
102
RTVSPropertyOp32
 70
     1
102
RTVSPropertyOp33
 70
     1
102
RTVSPropertyOp34
 70
     1
102
RTVSPropertyOp35
 70
     1
102
RTVSPropertyOp36
 70
     1
102
RTVSPropertyOp37
 70
     1
102
RTVSPropertyOp38
 70
     1
102
RTVSPropertyOp39
 70
     1
102
RTVSPropertyOp40
 70
     1
102
RTVSPropertyOp41
 70
     1
102
RTVSPropertyOp42
 70
     1
102
RTVSPropertyOp43
 70
     1
102
RTVSPropertyOp44
 70
     1
102
RTVSPropertyOp45
 70
     1
102
RTVSPropertyOp46
 70
     1
102
RTVSPropertyOp47
 70
     1
102
RTVSPropertyOp48
 70
     1
102
RTVSPropertyOp49
 70
     1
102
RTVSPropertyOp50
 70
     1
102
RTVSPropertyOp51
 70
     0
102
RTVSPropertyOp52
 70
     0
102
RTVSPropertyOp53
 70
     1
102
RTVSPropertyOp54
 70
     1
102
RTVSPropertyOp55
 70
     1
102
RTVSPropertyOp56
 70
     1
102
RTVSPropertyOp57
 70
     1
102
RTVSPropertyOp58
 70
     1
102
RTVSPropertyOp59
 70
     1
102
RTVSPropertyOp60
 70
     1
102
RTVSPropertyOp61
 70
     1
102
RTVSPropertyOp62
 70
     1
  0
ENDSEC
  0
EOF
