  0
SECTION
  2
HEADER
  9
$ACADVER
  1
AC1004
  9
$INSBASE
 10
0.0
 20
0.0
  9
$EXTMIN
 10
-66.173333
 20
-68.95
  9
$EXTMAX
 10
2033.826667
 20
2901.05
  9
$LIMMIN
 10
-66.173333
 20
-68.95
  9
$LIMMAX
 10
2033.826667
 20
2901.05
  9
$VIEWCTR
 10
6.0
 20
4.5
  9
$VIEWSIZE
 40
9.0
  9
$SNAPMODE
 70
     0
  9
$SNAPUNIT
 10
25.0
 20
25.0
  9
$SNAPBASE
 10
0.0
 20
0.0
  9
$SNAPANG
 50
0.0
  9
$SNAPSTYLE
 70
     0
  9
$SNAPISOPAIR
 70
     0
  9
$GRIDMODE
 70
     1
  9
$GRIDUNIT
 10
100.0
 20
100.0
  9
$ORTHOMODE
 70
     0
  9
$REGENMODE
 70
     1
  9
$FILLMODE
 70
     1
  9
$QTEXTMODE
 70
     0
  9
$DRAGMODE
 70
     2
  9
$LTSCALE
 40
1.0
  9
$OSMODE
 70
     1
  9
$ATTMODE
 70
     1
  9
$TEXTSIZE
 40
0.2
  9
$TRACEWID
 40
0.05
  9
$TEXTSTYLE
  7
STANDARD
  9
$CLAYER
  8
DATA
  9
$CELTYPE
  6
CONTINUOUS
  9
$CECOLOR
 62
     7
  9
$DIMSCALE
 40
1.0
  9
$DIMASZ
 40
0.18
  9
$DIMEXO
 40
0.0625
  9
$DIMDLI
 40
0.38
  9
$DIMRND
 40
0.0
  9
$DIMDLE
 40
0.0
  9
$DIMEXE
 40
0.18
  9
$DIMTP
 40
0.0
  9
$DIMTM
 40
0.0
  9
$DIMTXT
 40
0.18
  9
$DIMCEN
 40
0.09
  9
$DIMTSZ
 40
0.0
  9
$DIMTOL
 70
     0
  9
$DIMLIM
 70
     0
  9
$DIMTIH
 70
     1
  9
$DIMTOH
 70
     1
  9
$DIMSE1
 70
     0
  9
$DIMSE2
 70
     0
  9
$DIMTAD
 70
     0
  9
$DIMZIN
 70
     0
  9
$DIMBLK
  1

  9
$DIMASO
 70
     1
  9
$DIMSHO
 70
     1
  9
$DIMPOST
  1

  9
$DIMAPOST
  1

  9
$DIMALT
 70
     0
  9
$DIMALTD
 70
     2
  9
$DIMALTF
 40
25.4
  9
$DIMLFAC
 40
1.0
  9
$LUNITS
 70
     2
  9
$LUPREC
 70
     4
  9
$AXISMODE
 70
     0
  9
$AXISUNIT
 10
0.0
 20
0.0
  9
$SKETCHINC
 40
0.1
  9
$FILLETRAD
 40
10.0
  9
$AUNITS
 70
     0
  9
$AUPREC
 70
     0
  9
$MENU
  1
acad
  9
$ELEVATION
 40
0.0
  9
$THICKNESS
 40
0.0
  9
$VIEWDIR
 10
0.0
 20
0.0
 30
1.0
  9
$LIMCHECK
 70
     0
  9
$BLIPMODE
 70
     1
  9
$CHAMFERA
 40
0.0
  9
$CHAMFERB
 40
0.0
  9
$FASTZOOM
 70
     1
  9
$SKPOLY
 70
     0
  9
$TDCREATE
 40
0.0
  9
$TDUPDATE
 40
0.0
  9
$TDINDWG
 40
0.0
  9
$TDUSRTIMER
 40
0.0
  9
$USRTIMER
 70
     1
  9
$ANGBASE
 50
0.0
  9
$ANGDIR
 70
     0
  9
$PDMODE
 70
     0
  9
$PDSIZE
 40
0.0
  9
$PLINEWID
 40
0.0
  9
$COORDS
 70
     1
  9
$SPLFRAME
 70
     0
  9
$SPLINESEGS
 70
    10
  9
$ATTDIA
 70
     0
  9
$ATTREQ
 70
     1
  9
$USERI1
 70
     0
  9
$USERI2
 70
     0
  9
$USERI3
 70
     0
  9
$USERI4
 70
     0
  9
$USERI5
 70
     0
  9
$USERR1
 40
0.0
  9
$USERR2
 40
0.0
  9
$USERR3
 40
0.0
  9
$USERR4
 40
0.0
  9
$USERR5
 40
0.0
  0
ENDSEC
  0
SECTION
  2
TABLES
  0
TABLE
  2
LTYPE
 70
    11
  0
LTYPE
  2
CONTINUOUS
 70
     0
  3
Solid line
 72
    65
 73
     0
 40
0.0
  0
LTYPE
  2
DASHED
 70
     0
  3
__ __ __ __ __ __ __ __ __ __ __ __ __ __ __
 72
    65
 73
     2
 40
0.75
 49
0.5
 49
-0.25
  0
LTYPE
  2
HIDDEN
 70
     0
  3
_ _ _ _ _ _ _ _ _ _ _ _ _ _ _ _ _ _ _ _ _ _ 
 72
    65
 73
     2
 40
0.25
 49
0.125
 49
-0.125
  0
LTYPE
  2
CENTER
 70
     0
  3
____ _ ____ _ ____ _ ____ _ ____ _ ____ _ __
 72
    65
 73
     4
 40
2.0
 49
1.25
 49
-0.25
 49
0.25
 49
-0.25
  0
LTYPE
  2
PHANTOM
 70
     0
  3
_____ _ _ _____ _ _ _____ _ _ _____ _ _ ____
 72
    65
 73
     6
 40
2.5
 49
1.25
 49
-0.25
 49
0.25
 49
-0.25
 49
0.25
 49
-0.25
  0
LTYPE
  2
DOT
 70
     0
  3
............................................
 72
    65
 73
     2
 40
0.25
 49
0.0
 49
-0.25
  0
LTYPE
  2
DASHDOT
 70
     0
  3
__ . __ . __ . __ . __ . __ . __ . __ . __ .
 72
    65
 73
     4
 40
1.0
 49
0.5
 49
-0.25
 49
0.0
 49
-0.25
  0
LTYPE
  2
BORDER
 70
     0
  3
__ __ . __ __ . __ __ . __ __ . __ __ . __ _
 72
    65
 73
     6
 40
1.75
 49
0.5
 49
-0.25
 49
0.5
 49
-0.25
 49
0.0
 49
-0.25
  0
LTYPE
  2
DIVIDE
 70
     0
  3
__ . . __ . . __ . . __ . . __ . . __ . . __
 72
    65
 73
     6
 40
1.25
 49
0.5
 49
-0.25
 49
0.0
 49
-0.25
 49
0.0
 49
-0.25
  0
LTYPE
  2
DOTS
 70
     0
  3
close                                       
 72
    65
 73
     2
 40
0.1
 49
0.05
 49
-0.05
  0
LTYPE
  2
CLOSE
 70
     0
  3
                                            
 72
    65
 73
     0
 40
0.0
  0
ENDTAB
  0
TABLE
  2
LAYER
 70
     7
  0
LAYER
  2
0
 70
     0
 62
     7
  6
CONTINUOUS
  0
LAYER
  2
LAYER01
 70
     0
 62
     7
  6
CONTINUOUS
  0
LAYER
  2
DATA
 70
     0
 62
     7
  6
CONTINUOUS
  0
LAYER
  2
DIMENSIONS
 70
     0
 62
     7
  6
CONTINUOUS
  0
LAYER
  2
SPEC
 70
     0
 62
     7
  6
CONTINUOUS
  0
LAYER
  2
HIBINO-BASE
 70
     0
 62
     7
  6
CONTINUOUS
  0
LAYER
  2
KANAGU
 70
     0
 62
     7
  6
CONTINUOUS
  0
ENDTAB
  0
TABLE
  2
STYLE
 70
     2
  0
STYLE
  2
STANDARD
 70
     0
 40
0.0
 41
1.0
 50
0.0
 71
     0
 42
0.2
  3
txt
  4

  0
STYLE
  2
TTF_DEFAULT
 70
     0
 40
0.0
 41
1.0
 50
0.0
 71
     0
 42
0.0
  3
txt
  4
BIGFONT
  0
ENDTAB
  0
TABLE
  2
VIEW
 70
     0
  0
ENDTAB
  0
ENDSEC
  0
SECTION
  2
BLOCKS
  0
BLOCK
  8
0
  2
*D0
 70
    65
 10
0.0
 20
0.0
  0
LINE
  8
DIMENSIONS
 62
     7
 10
642.001217
 20
950.0
 11
852.001217
 21
950.0
  0
LINE
  8
DIMENSIONS
 62
     7
 10
642.001217
 20
871.630728
 11
642.001217
 21
962.5
  0
LINE
  8
DIMENSIONS
 62
     7
 10
852.001217
 20
890.000485
 11
852.001217
 21
962.5
  0
LINE
  8
DIMENSIONS
 62
     7
 10
662.001217
 20
946.6668
 11
642.001217
 21
950.0
  0
LINE
  8
DIMENSIONS
 62
     7
 10
662.001217
 20
953.3332
 11
642.001217
 21
950.0
  0
LINE
  8
DIMENSIONS
 62
     7
 10
832.001217
 20
946.6668
 11
852.001217
 21
950.0
  0
LINE
  8
DIMENSIONS
 62
     7
 10
832.001217
 20
953.3332
 11
852.001217
 21
950.0
  0
TEXT
  8
DIMENSIONS
  6
CONTINUOUS
 62
     7
 10
725.248686
 20
962.5
 40
25.0
  1
210
  7
TTF_DEFAULT
  0
POINT
  8
DIMENSIONS
 62
     7
 10
642.001217
 20
861.630728
  0
POINT
  8
DIMENSIONS
 62
     7
 10
852.001217
 20
880.000485
  0
POINT
  8
DIMENSIONS
 62
     7
 10
852.001217
 20
950.0
  0
ENDBLK
  8
0
  0
BLOCK
  8
0
  2
DCP125-G2
 70
     0
 10
0.0
 20
0.0
  0
LINE
  8
DATA
  6
CONTINUOUS
 62
     7
 10
1433.800551
 20
1101.999955
 11
1248.799435
 21
1101.999955
  0
LINE
  8
DATA
  6
CONTINUOUS
 62
     7
 10
1248.799435
 20
1272.000983
 11
1433.800551
 21
1272.000983
  0
LINE
  8
DATA
  6
CONTINUOUS
 62
     7
 10
1341.709099
 20
1279.001011
 11
1351.072782
 21
1279.001011
  0
LINE
  8
DATA
  6
CONTINUOUS
 62
     7
 10
1248.799435
 20
1101.999955
 11
1248.799435
 21
1272.000983
  0
CIRCLE
  8
DATA
  6
CONTINUOUS
 62
     7
 10
1298.799743
 20
1112.0
 40
3.500028
  0
ARC
  8
DATA
  6
CONTINUOUS
 62
     7
 10
1297.908836
 20
1111.109093
 40
0.636362
 50
0.0
 51
90.0
  0
LINE
  8
DATA
  6
CONTINUOUS
 62
     7
 10
1296.342563
 20
1111.745455
 11
1297.908836
 21
1111.745455
  0
ARC
  8
DATA
  6
CONTINUOUS
 62
     7
 10
1299.690664
 20
1111.109093
 40
0.636362
 50
90.0
 51
180.0
  0
LINE
  8
DATA
  6
CONTINUOUS
 62
     7
 10
1299.690664
 20
1111.745455
 11
1301.256923
 21
1111.745455
  0
ARC
  8
DATA
  6
CONTINUOUS
 62
     7
 10
1299.690664
 20
1112.890921
 40
0.636362
 50
180.0
 51
270.0
  0
LINE
  8
DATA
  6
CONTINUOUS
 62
     7
 10
1299.690664
 20
1112.254559
 11
1301.256923
 21
1112.254559
  0
LINE
  8
DATA
  6
CONTINUOUS
 62
     7
 10
1299.054288
 20
1112.890921
 11
1299.054288
 21
1114.45718
  0
ARC
  8
DATA
  6
CONTINUOUS
 62
     7
 10
1297.908836
 20
1112.890921
 40
0.636362
 50
270.0
 51
0.0
  0
LINE
  8
DATA
  6
CONTINUOUS
 62
     7
 10
1298.545198
 20
1112.890921
 11
1298.545198
 21
1114.45718
  0
LINE
  8
DATA
  6
CONTINUOUS
 62
     7
 10
1296.342563
 20
1112.254559
 11
1297.908836
 21
1112.254559
  0
ARC
  8
DATA
  6
CONTINUOUS
 62
     7
 10
1298.799743
 20
1112.0
 40
2.470321
 50
174.085662
 51
185.914338
  0
ARC
  8
DATA
  6
CONTINUOUS
 62
     7
 10
1298.799743
 20
1112.0
 40
2.470321
 50
84.085662
 51
95.914338
  0
ARC
  8
DATA
  6
CONTINUOUS
 62
     7
 10
1298.799743
 20
1112.0
 40
2.470321
 50
354.085662
 51
5.914338
  0
ARC
  8
DATA
  6
CONTINUOUS
 62
     7
 10
1298.799743
 20
1112.0
 40
2.470321
 50
264.085662
 51
275.914338
  0
LINE
  8
DATA
  6
CONTINUOUS
 62
     7
 10
1298.545198
 20
1109.542834
 11
1298.545198
 21
1111.109093
  0
LINE
  8
DATA
  6
CONTINUOUS
 62
     7
 10
1299.054288
 20
1109.542834
 11
1299.054288
 21
1111.109093
  0
CIRCLE
  8
DATA
  6
CONTINUOUS
 62
     7
 10
1299.690664
 20
1110.47273
 40
0.636362
  0
CIRCLE
  8
DATA
  6
CONTINUOUS
 62
     7
 10
1298.799743
 20
1112.0
 40
2.987573
  0
LINE
  8
DATA
  6
CONTINUOUS
 62
     7
 10
1282.89056
 20
1304.001158
 11
1284.890571
 21
1304.001158
  0
LINE
  8
DATA
  6
CONTINUOUS
 62
     7
 10
1275.054147
 20
1262.891832
 11
1275.054147
 21
1264.458091
  0
LINE
  8
DATA
  6
CONTINUOUS
 62
     7
 10
1274.545057
 20
1262.891832
 11
1274.545057
 21
1264.458091
  0
CIRCLE
  8
DATA
  6
CONTINUOUS
 62
     7
 10
1274.799602
 20
1262.000911
 40
2.987573
  0
CIRCLE
  8
DATA
  6
CONTINUOUS
 62
     7
 10
1274.799602
 20
1262.000911
 40
3.500028
  0
ARC
  8
DATA
  6
CONTINUOUS
 62
     7
 10
1273.908681
 20
1261.109989
 40
0.636362
 50
0.0
 51
90.0
  0
LINE
  8
DATA
  6
CONTINUOUS
 62
     7
 10
1274.545057
 20
1259.54373
 11
1274.545057
 21
1261.109989
  0
ARC
  8
DATA
  6
CONTINUOUS
 62
     7
 10
1275.690509
 20
1261.109989
 40
0.636362
 50
90.0
 51
180.0
  0
LINE
  8
DATA
  6
CONTINUOUS
 62
     7
 10
1275.690509
 20
1261.746366
 11
1277.256768
 21
1261.746366
  0
LINE
  8
DATA
  6
CONTINUOUS
 62
     7
 10
1275.054147
 20
1259.54373
 11
1275.054147
 21
1261.109989
  0
CIRCLE
  8
DATA
  6
CONTINUOUS
 62
     7
 10
1275.690509
 20
1260.473627
 40
0.636362
  0
ARC
  8
DATA
  6
CONTINUOUS
 62
     7
 10
1275.690509
 20
1262.891832
 40
0.636362
 50
180.0
 51
270.0
  0
LINE
  8
DATA
  6
CONTINUOUS
 62
     7
 10
1275.690509
 20
1262.255455
 11
1277.256768
 21
1262.255455
  0
ARC
  8
DATA
  6
CONTINUOUS
 62
     7
 10
1273.908681
 20
1262.891832
 40
0.636362
 50
270.0
 51
0.0
  0
ARC
  8
DATA
  6
CONTINUOUS
 62
     7
 10
1274.799602
 20
1262.000911
 40
2.470321
 50
354.085662
 51
5.914338
  0
ARC
  8
DATA
  6
CONTINUOUS
 62
     7
 10
1274.799602
 20
1262.000911
 40
2.470321
 50
264.085662
 51
275.914338
  0
ARC
  8
DATA
  6
CONTINUOUS
 62
     7
 10
1274.799602
 20
1262.000911
 40
2.470321
 50
174.085662
 51
185.914338
  0
LINE
  8
DATA
  6
CONTINUOUS
 62
     7
 10
1272.342421
 20
1261.746366
 11
1273.908681
 21
1261.746366
  0
LINE
  8
DATA
  6
CONTINUOUS
 62
     7
 10
1272.342421
 20
1262.255455
 11
1273.908681
 21
1262.255455
  0
LINE
  8
DATA
  6
CONTINUOUS
 62
     7
 10
1271.526851
 20
1304.001158
 11
1273.526863
 21
1304.001158
  0
ARC
  8
DATA
  6
CONTINUOUS
 62
     7
 10
1274.799602
 20
1262.000911
 40
2.470321
 50
84.085662
 51
95.914338
  0
LINE
  8
DATA
  6
CONTINUOUS
 62
     7
 10
1273.526863
 20
1279.001011
 11
1282.89056
 21
1279.001011
  0
LINE
  8
DATA
  6
CONTINUOUS
 62
     7
 10
1282.89056
 20
1279.001011
 11
1282.89056
 21
1304.001158
  0
LINE
  8
DATA
  6
CONTINUOUS
 62
     7
 10
1273.526863
 20
1279.001011
 11
1273.526863
 21
1304.001158
  0
LINE
  8
DATA
  6
CONTINUOUS
 62
     7
 10
1271.526851
 20
1279.001011
 11
1271.526851
 21
1304.001158
  0
LINE
  8
DATA
  6
CONTINUOUS
 62
     7
 10
1260.163143
 20
1304.001158
 11
1262.163155
 21
1304.001158
  0
LINE
  8
DATA
  6
CONTINUOUS
 62
     7
 10
1262.163155
 20
1279.001011
 11
1262.163155
 21
1304.001158
  0
LINE
  8
DATA
  6
CONTINUOUS
 62
     7
 10
1260.163143
 20
1279.001011
 11
1260.163143
 21
1304.001158
  0
LINE
  8
DATA
  6
CONTINUOUS
 62
     7
 10
1248.799449
 20
1304.001158
 11
1250.79946
 21
1304.001158
  0
LINE
  8
DATA
  6
CONTINUOUS
 62
     7
 10
1250.79946
 20
1279.001011
 11
1250.79946
 21
1304.001158
  0
LINE
  8
DATA
  6
CONTINUOUS
 62
     7
 10
1248.799449
 20
1272.000969
 11
1248.799449
 21
1304.001158
  0
LINE
  8
DATA
  6
CONTINUOUS
 62
     7
 10
1250.79946
 20
1279.001011
 11
1260.163143
 21
1279.001011
  0
LINE
  8
DATA
  6
CONTINUOUS
 62
     7
 10
1262.163155
 20
1279.001011
 11
1271.526851
 21
1279.001011
  0
LINE
  8
DATA
  6
CONTINUOUS
 62
     7
 10
1339.709087
 20
1304.001158
 11
1341.709099
 21
1304.001158
  0
LINE
  8
DATA
  6
CONTINUOUS
 62
     7
 10
1294.254268
 20
1304.001158
 11
1296.25428
 21
1304.001158
  0
LINE
  8
DATA
  6
CONTINUOUS
 62
     7
 10
1305.617962
 20
1304.001158
 11
1307.617974
 21
1304.001158
  0
LINE
  8
DATA
  6
CONTINUOUS
 62
     7
 10
1316.981671
 20
1304.001158
 11
1318.981682
 21
1304.001158
  0
LINE
  8
DATA
  6
CONTINUOUS
 62
     7
 10
1328.345379
 20
1304.001158
 11
1330.345391
 21
1304.001158
  0
LINE
  8
DATA
  6
CONTINUOUS
 62
     7
 10
1296.25428
 20
1279.001011
 11
1305.617962
 21
1279.001011
  0
LINE
  8
DATA
  6
CONTINUOUS
 62
     7
 10
1318.981682
 20
1279.001011
 11
1328.345379
 21
1279.001011
  0
LINE
  8
DATA
  6
CONTINUOUS
 62
     7
 10
1307.617974
 20
1279.001011
 11
1316.981671
 21
1279.001011
  0
LINE
  8
DATA
  6
CONTINUOUS
 62
     7
 10
1284.890571
 20
1279.001011
 11
1294.254268
 21
1279.001011
  0
LINE
  8
DATA
  6
CONTINUOUS
 62
     7
 10
1330.345391
 20
1279.001011
 11
1339.709087
 21
1279.001011
  0
LINE
  8
DATA
  6
CONTINUOUS
 62
     7
 10
1341.709099
 20
1279.001011
 11
1341.709099
 21
1304.001158
  0
LINE
  8
DATA
  6
CONTINUOUS
 62
     7
 10
1339.709087
 20
1279.001011
 11
1339.709087
 21
1304.001158
  0
LINE
  8
DATA
  6
CONTINUOUS
 62
     7
 10
1296.25428
 20
1279.001011
 11
1296.25428
 21
1304.001158
  0
LINE
  8
DATA
  6
CONTINUOUS
 62
     7
 10
1294.254268
 20
1279.001011
 11
1294.254268
 21
1304.001158
  0
LINE
  8
DATA
  6
CONTINUOUS
 62
     7
 10
1318.981682
 20
1279.001011
 11
1318.981682
 21
1304.001158
  0
LINE
  8
DATA
  6
CONTINUOUS
 62
     7
 10
1330.345391
 20
1279.001011
 11
1330.345391
 21
1304.001158
  0
LINE
  8
DATA
  6
CONTINUOUS
 62
     7
 10
1328.345379
 20
1279.001011
 11
1328.345379
 21
1304.001158
  0
LINE
  8
DATA
  6
CONTINUOUS
 62
     7
 10
1316.981671
 20
1279.001011
 11
1316.981671
 21
1304.001158
  0
LINE
  8
DATA
  6
CONTINUOUS
 62
     7
 10
1307.617974
 20
1279.001011
 11
1307.617974
 21
1304.001158
  0
LINE
  8
DATA
  6
CONTINUOUS
 62
     7
 10
1305.617962
 20
1279.001011
 11
1305.617962
 21
1304.001158
  0
LINE
  8
DATA
  6
CONTINUOUS
 62
     7
 10
1284.890571
 20
1279.001011
 11
1284.890571
 21
1304.001158
  0
LINE
  8
DATA
  6
CONTINUOUS
 62
     7
 10
1433.800551
 20
1101.999955
 11
1433.800551
 21
1272.000983
  0
CIRCLE
  8
DATA
  6
CONTINUOUS
 62
     7
 10
1383.800257
 20
1112.0
 40
3.500028
  0
ARC
  8
DATA
  6
CONTINUOUS
 62
     7
 10
1383.800257
 20
1112.0
 40
2.470321
 50
354.085662
 51
5.914338
  0
ARC
  8
DATA
  6
CONTINUOUS
 62
     7
 10
1382.909336
 20
1111.109093
 40
0.636362
 50
0.0
 51
90.0
  0
LINE
  8
DATA
  6
CONTINUOUS
 62
     7
 10
1381.343077
 20
1111.745455
 11
1382.909336
 21
1111.745455
  0
ARC
  8
DATA
  6
CONTINUOUS
 62
     7
 10
1384.691164
 20
1111.109093
 40
0.636362
 50
90.0
 51
180.0
  0
ARC
  8
DATA
  6
CONTINUOUS
 62
     7
 10
1384.691164
 20
1112.890921
 40
0.636362
 50
180.0
 51
270.0
  0
LINE
  8
DATA
  6
CONTINUOUS
 62
     7
 10
1384.054802
 20
1112.890921
 11
1384.054802
 21
1114.45718
  0
ARC
  8
DATA
  6
CONTINUOUS
 62
     7
 10
1382.909336
 20
1112.890921
 40
0.636362
 50
270.0
 51
0.0
  0
LINE
  8
DATA
  6
CONTINUOUS
 62
     7
 10
1383.545712
 20
1112.890921
 11
1383.545712
 21
1114.45718
  0
LINE
  8
DATA
  6
CONTINUOUS
 62
     7
 10
1381.343077
 20
1112.254559
 11
1382.909336
 21
1112.254559
  0
ARC
  8
DATA
  6
CONTINUOUS
 62
     7
 10
1383.800257
 20
1112.0
 40
2.470321
 50
174.085662
 51
185.914338
  0
ARC
  8
DATA
  6
CONTINUOUS
 62
     7
 10
1383.800257
 20
1112.0
 40
2.470321
 50
84.085662
 51
95.914338
  0
LINE
  8
DATA
  6
CONTINUOUS
 62
     7
 10
1384.691164
 20
1111.745455
 11
1386.257437
 21
1111.745455
  0
LINE
  8
DATA
  6
CONTINUOUS
 62
     7
 10
1384.691164
 20
1112.254559
 11
1386.257437
 21
1112.254559
  0
ARC
  8
DATA
  6
CONTINUOUS
 62
     7
 10
1383.800257
 20
1112.0
 40
2.470321
 50
264.085662
 51
275.914338
  0
LINE
  8
DATA
  6
CONTINUOUS
 62
     7
 10
1383.545712
 20
1109.542834
 11
1383.545712
 21
1111.109093
  0
LINE
  8
DATA
  6
CONTINUOUS
 62
     7
 10
1384.054802
 20
1109.542834
 11
1384.054802
 21
1111.109093
  0
CIRCLE
  8
DATA
  6
CONTINUOUS
 62
     7
 10
1384.691164
 20
1110.47273
 40
0.636362
  0
CIRCLE
  8
DATA
  6
CONTINUOUS
 62
     7
 10
1383.800257
 20
1112.0
 40
2.987573
  0
LINE
  8
DATA
  6
CONTINUOUS
 62
     7
 10
1351.072782
 20
1304.001158
 11
1353.072793
 21
1304.001158
  0
LINE
  8
DATA
  6
CONTINUOUS
 62
     7
 10
1351.072782
 20
1279.001011
 11
1351.072782
 21
1304.001158
  0
LINE
  8
DATA
  6
CONTINUOUS
 62
     7
 10
1364.436502
 20
1279.001011
 11
1373.800198
 21
1279.001011
  0
LINE
  8
DATA
  6
CONTINUOUS
 62
     7
 10
1362.43649
 20
1304.001158
 11
1364.436502
 21
1304.001158
  0
LINE
  8
DATA
  6
CONTINUOUS
 62
     7
 10
1353.072793
 20
1279.001011
 11
1362.43649
 21
1279.001011
  0
LINE
  8
DATA
  6
CONTINUOUS
 62
     7
 10
1364.436502
 20
1279.001011
 11
1364.436502
 21
1304.001158
  0
LINE
  8
DATA
  6
CONTINUOUS
 62
     7
 10
1362.43649
 20
1279.001011
 11
1362.43649
 21
1304.001158
  0
LINE
  8
DATA
  6
CONTINUOUS
 62
     7
 10
1353.072793
 20
1279.001011
 11
1353.072793
 21
1304.001158
  0
LINE
  8
DATA
  6
CONTINUOUS
 62
     7
 10
1373.800198
 20
1304.001158
 11
1375.80021
 21
1304.001158
  0
LINE
  8
DATA
  6
CONTINUOUS
 62
     7
 10
1375.80021
 20
1272.000969
 11
1375.80021
 21
1304.001158
  0
LINE
  8
DATA
  6
CONTINUOUS
 62
     7
 10
1373.800198
 20
1279.001011
 11
1373.800198
 21
1304.001158
  0
LINE
  8
DATA
  6
CONTINUOUS
 62
     7
 10
1408.054943
 20
1262.891832
 11
1408.054943
 21
1264.458091
  0
LINE
  8
DATA
  6
CONTINUOUS
 62
     7
 10
1407.545853
 20
1262.891832
 11
1407.545853
 21
1264.458091
  0
CIRCLE
  8
DATA
  6
CONTINUOUS
 62
     7
 10
1407.800398
 20
1262.000911
 40
2.987573
  0
CIRCLE
  8
DATA
  6
CONTINUOUS
 62
     7
 10
1407.800398
 20
1262.000911
 40
3.500028
  0
ARC
  8
DATA
  6
CONTINUOUS
 62
     7
 10
1406.909491
 20
1261.109989
 40
0.636362
 50
0.0
 51
90.0
  0
LINE
  8
DATA
  6
CONTINUOUS
 62
     7
 10
1405.343232
 20
1261.746366
 11
1406.909491
 21
1261.746366
  0
LINE
  8
DATA
  6
CONTINUOUS
 62
     7
 10
1407.545853
 20
1259.54373
 11
1407.545853
 21
1261.109989
  0
ARC
  8
DATA
  6
CONTINUOUS
 62
     7
 10
1408.691319
 20
1261.109989
 40
0.636362
 50
90.0
 51
180.0
  0
LINE
  8
DATA
  6
CONTINUOUS
 62
     7
 10
1408.691319
 20
1261.746366
 11
1410.257579
 21
1261.746366
  0
LINE
  8
DATA
  6
CONTINUOUS
 62
     7
 10
1408.054943
 20
1259.54373
 11
1408.054943
 21
1261.109989
  0
CIRCLE
  8
DATA
  6
CONTINUOUS
 62
     7
 10
1408.691319
 20
1260.473627
 40
0.636362
  0
ARC
  8
DATA
  6
CONTINUOUS
 62
     7
 10
1408.691319
 20
1262.891832
 40
0.636362
 50
180.0
 51
270.0
  0
LINE
  8
DATA
  6
CONTINUOUS
 62
     7
 10
1408.691319
 20
1262.255455
 11
1410.257579
 21
1262.255455
  0
ARC
  8
DATA
  6
CONTINUOUS
 62
     7
 10
1406.909491
 20
1262.891832
 40
0.636362
 50
270.0
 51
0.0
  0
LINE
  8
DATA
  6
CONTINUOUS
 62
     7
 10
1405.343232
 20
1262.255455
 11
1406.909491
 21
1262.255455
  0
ARC
  8
DATA
  6
CONTINUOUS
 62
     7
 10
1407.800398
 20
1262.000911
 40
2.470321
 50
174.085662
 51
185.914338
  0
ARC
  8
DATA
  6
CONTINUOUS
 62
     7
 10
1407.800398
 20
1262.000911
 40
2.470321
 50
354.085662
 51
5.914338
  0
ARC
  8
DATA
  6
CONTINUOUS
 62
     7
 10
1407.800398
 20
1262.000911
 40
2.470321
 50
264.085662
 51
275.914338
  0
ARC
  8
DATA
  6
CONTINUOUS
 62
     7
 10
1407.800398
 20
1262.000911
 40
2.470321
 50
84.085662
 51
95.914338
  0
ENDBLK
  8
0
  0
BLOCK
  8
0
  2
DCP125-G3
 70
     0
 10
0.0
 20
0.0
  0
LINE
  8
DATA
  6
CONTINUOUS
 62
     7
 10
1652.999788
 20
884.000426
 11
1855.001005
 21
884.000426
  0
LINE
  8
DATA
  6
CONTINUOUS
 62
     7
 10
1823.000816
 20
803.999941
 11
1652.999788
 21
803.999941
  0
LINE
  8
DATA
  6
CONTINUOUS
 62
     7
 10
1652.999788
 20
884.000426
 11
1652.999788
 21
803.999941
  0
ARC
  8
DATA
  6
CONTINUOUS
 62
     7
 10
1672.999913
 20
808.724969
 40
9.725057
 50
209.06891
 51
330.93109
  0
LINE
  8
DATA
  6
CONTINUOUS
 62
     7
 10
1649.99977
 20
876.130738
 11
1649.99977
 21
846.130548
  0
ARC
  8
DATA
  6
CONTINUOUS
 62
     7
 10
1650.501044
 20
865.630669
 40
5.500039
 50
95.229194
 51
180.0
  0
LINE
  8
DATA
  6
CONTINUOUS
 62
     7
 10
1649.99977
 20
836.458118
 11
1649.99977
 21
813.457969
  0
LINE
  8
DATA
  6
CONTINUOUS
 62
     7
 10
1649.99977
 20
846.130548
 11
1652.999788
 21
846.130548
  0
LINE
  8
DATA
  6
CONTINUOUS
 62
     7
 10
1652.999788
 20
836.458118
 11
1649.99977
 21
836.458118
  0
LINE
  8
DATA
  6
CONTINUOUS
 62
     7
 10
1649.99977
 20
813.457969
 11
1652.999788
 21
813.457969
  0
ARC
  8
DATA
  6
CONTINUOUS
 62
     7
 10
1635.753213
 20
854.474061
 40
14.491085
 50
10.540575
 51
50.344425
  0
LINE
  8
DATA
  6
CONTINUOUS
 62
     7
 10
1649.99977
 20
865.630669
 11
1645.001005
 21
865.630669
  0
LINE
  8
DATA
  6
CONTINUOUS
 62
     7
 10
1649.99977
 20
876.130738
 11
1652.999788
 21
876.130738
  0
ARC
  8
DATA
  6
CONTINUOUS
 62
     7
 10
1689.0
 20
814.0
 40
2.470321
 50
84.085662
 51
95.914338
  0
ARC
  8
DATA
  6
CONTINUOUS
 62
     7
 10
1689.0
 20
814.0
 40
2.470321
 50
354.085662
 51
5.914338
  0
ARC
  8
DATA
  6
CONTINUOUS
 62
     7
 10
1689.0
 20
814.0
 40
2.470321
 50
174.085662
 51
185.914338
  0
LINE
  8
DATA
  6
CONTINUOUS
 62
     7
 10
1686.542834
 20
813.745455
 11
1688.109093
 21
813.745455
  0
LINE
  8
DATA
  6
CONTINUOUS
 62
     7
 10
1689.890921
 20
813.745455
 11
1691.45718
 21
813.745455
  0
CIRCLE
  8
DATA
  6
CONTINUOUS
 62
     7
 10
1689.890921
 20
815.527283
 40
0.636362
  0
LINE
  8
DATA
  6
CONTINUOUS
 62
     7
 10
1689.254545
 20
816.45718
 11
1689.254545
 21
814.890907
  0
LINE
  8
DATA
  6
CONTINUOUS
 62
     7
 10
1689.890921
 20
814.254545
 11
1691.45718
 21
814.254545
  0
ARC
  8
DATA
  6
CONTINUOUS
 62
     7
 10
1689.890921
 20
814.890907
 40
0.636362
 50
180.0
 51
270.0
  0
LINE
  8
DATA
  6
CONTINUOUS
 62
     7
 10
1688.745455
 20
816.45718
 11
1688.745455
 21
814.890907
  0
LINE
  8
DATA
  6
CONTINUOUS
 62
     7
 10
1686.542834
 20
814.254545
 11
1688.109093
 21
814.254545
  0
ARC
  8
DATA
  6
CONTINUOUS
 62
     7
 10
1688.109093
 20
814.890907
 40
0.636362
 50
270.0
 51
0.0
  0
ARC
  8
DATA
  6
CONTINUOUS
 62
     7
 10
1689.0
 20
814.0
 40
2.470321
 50
264.085662
 51
275.914338
  0
LINE
  8
DATA
  6
CONTINUOUS
 62
     7
 10
1688.745455
 20
813.109079
 11
1688.745455
 21
811.54282
  0
LINE
  8
DATA
  6
CONTINUOUS
 62
     7
 10
1689.254545
 20
813.109079
 11
1689.254545
 21
811.54282
  0
ARC
  8
DATA
  6
CONTINUOUS
 62
     7
 10
1688.109093
 20
813.109079
 40
0.636362
 50
0.0
 51
90.0
  0
ARC
  8
DATA
  6
CONTINUOUS
 62
     7
 10
1689.890921
 20
813.109079
 40
0.636362
 50
90.0
 51
180.0
  0
CIRCLE
  8
DATA
  6
CONTINUOUS
 62
     7
 10
1689.0
 20
814.0
 40
2.987573
  0
CIRCLE
  8
DATA
  6
CONTINUOUS
 62
     7
 10
1689.0
 20
814.0
 40
3.500028
  0
LINE
  8
DATA
  6
CONTINUOUS
 62
     7
 10
1823.000816
 20
884.000426
 11
1823.000816
 21
803.999941
  0
LINE
  8
DATA
  6
CONTINUOUS
 62
     7
 10
1855.001005
 20
884.000426
 11
1855.001005
 21
803.999941
  0
LINE
  8
DATA
  6
CONTINUOUS
 62
     7
 10
1823.000816
 20
803.999941
 11
1855.001005
 21
803.999941
  0
LINE
  8
DATA
  6
CONTINUOUS
 62
     7
 10
1803.000699
 20
846.571628
 11
1803.000699
 21
843.571611
  0
LINE
  8
DATA
  6
CONTINUOUS
 62
     7
 10
1803.000699
 20
853.428809
 11
1803.000699
 21
850.428792
  0
LINE
  8
DATA
  6
CONTINUOUS
 62
     7
 10
1803.000699
 20
832.857266
 11
1803.000699
 21
829.857248
  0
LINE
  8
DATA
  6
CONTINUOUS
 62
     7
 10
1803.000699
 20
826.000085
 11
1803.000699
 21
823.000053
  0
LINE
  8
DATA
  6
CONTINUOUS
 62
     7
 10
1803.000699
 20
839.714447
 11
1803.000699
 21
836.714429
  0
ARC
  8
DATA
  6
CONTINUOUS
 62
     7
 10
1787.000591
 20
814.0
 40
2.470321
 50
84.085662
 51
95.914338
  0
ARC
  8
DATA
  6
CONTINUOUS
 62
     7
 10
1787.000591
 20
814.0
 40
2.470321
 50
174.085662
 51
185.914338
  0
LINE
  8
DATA
  6
CONTINUOUS
 62
     7
 10
1786.109683
 20
813.745455
 11
1784.543424
 21
813.745455
  0
CIRCLE
  8
DATA
  6
CONTINUOUS
 62
     7
 10
1786.109683
 20
815.527283
 40
0.636362
  0
LINE
  8
DATA
  6
CONTINUOUS
 62
     7
 10
1786.746046
 20
816.45718
 11
1786.746046
 21
814.890907
  0
LINE
  8
DATA
  6
CONTINUOUS
 62
     7
 10
1786.109683
 20
814.254545
 11
1784.543424
 21
814.254545
  0
ARC
  8
DATA
  6
CONTINUOUS
 62
     7
 10
1786.109683
 20
814.890907
 40
0.636362
 50
270.0
 51
0.0
  0
LINE
  8
DATA
  6
CONTINUOUS
 62
     7
 10
1787.255136
 20
816.45718
 11
1787.255136
 21
814.890907
  0
ARC
  8
DATA
  6
CONTINUOUS
 62
     7
 10
1787.891512
 20
814.890907
 40
0.636362
 50
180.0
 51
270.0
  0
ARC
  8
DATA
  6
CONTINUOUS
 62
     7
 10
1787.000591
 20
814.0
 40
2.470321
 50
354.085662
 51
5.914338
  0
LINE
  8
DATA
  6
CONTINUOUS
 62
     7
 10
1789.457771
 20
813.745455
 11
1787.891512
 21
813.745455
  0
LINE
  8
DATA
  6
CONTINUOUS
 62
     7
 10
1789.457771
 20
814.254545
 11
1787.891512
 21
814.254545
  0
LINE
  8
DATA
  6
CONTINUOUS
 62
     7
 10
1763.000449
 20
846.571628
 11
1763.000449
 21
843.571611
  0
LINE
  8
DATA
  6
CONTINUOUS
 62
     7
 10
1763.000449
 20
853.428809
 11
1763.000449
 21
850.428792
  0
LINE
  8
DATA
  6
CONTINUOUS
 62
     7
 10
1763.000449
 20
832.857266
 11
1763.000449
 21
829.857248
  0
LINE
  8
DATA
  6
CONTINUOUS
 62
     7
 10
1763.000449
 20
826.000085
 11
1763.000449
 21
823.000053
  0
LINE
  8
DATA
  6
CONTINUOUS
 62
     7
 10
1763.000449
 20
839.714447
 11
1763.000449
 21
836.714429
  0
ARC
  8
DATA
  6
CONTINUOUS
 62
     7
 10
1787.000591
 20
814.0
 40
2.470321
 50
264.085662
 51
275.914338
  0
LINE
  8
DATA
  6
CONTINUOUS
 62
     7
 10
1787.255136
 20
813.109079
 11
1787.255136
 21
811.54282
  0
LINE
  8
DATA
  6
CONTINUOUS
 62
     7
 10
1786.746046
 20
813.109079
 11
1786.746046
 21
811.54282
  0
ARC
  8
DATA
  6
CONTINUOUS
 62
     7
 10
1787.891512
 20
813.109079
 40
0.636362
 50
90.0
 51
180.0
  0
ARC
  8
DATA
  6
CONTINUOUS
 62
     7
 10
1786.109683
 20
813.109079
 40
0.636362
 50
0.0
 51
90.0
  0
CIRCLE
  8
DATA
  6
CONTINUOUS
 62
     7
 10
1787.000591
 20
814.0
 40
2.987573
  0
CIRCLE
  8
DATA
  6
CONTINUOUS
 62
     7
 10
1787.000591
 20
814.0
 40
3.500028
  0
LINE
  8
DATA
  6
CONTINUOUS
 62
     7
 10
1763.000449
 20
853.428809
 11
1803.000699
 21
853.428809
  0
LINE
  8
DATA
  6
CONTINUOUS
 62
     7
 10
1763.000449
 20
850.428792
 11
1803.000699
 21
850.428792
  0
LINE
  8
DATA
  6
CONTINUOUS
 62
     7
 10
1763.000449
 20
846.571628
 11
1803.000699
 21
846.571628
  0
LINE
  8
DATA
  6
CONTINUOUS
 62
     7
 10
1763.000449
 20
843.571611
 11
1803.000699
 21
843.571611
  0
LINE
  8
DATA
  6
CONTINUOUS
 62
     7
 10
1763.000449
 20
839.714447
 11
1803.000699
 21
839.714447
  0
LINE
  8
DATA
  6
CONTINUOUS
 62
     7
 10
1763.000449
 20
829.857248
 11
1803.000699
 21
829.857248
  0
LINE
  8
DATA
  6
CONTINUOUS
 62
     7
 10
1763.000449
 20
836.714429
 11
1803.000699
 21
836.714429
  0
LINE
  8
DATA
  6
CONTINUOUS
 62
     7
 10
1763.000449
 20
832.857266
 11
1803.000699
 21
832.857266
  0
LINE
  8
DATA
  6
CONTINUOUS
 62
     7
 10
1763.000449
 20
823.000053
 11
1803.000699
 21
823.000053
  0
LINE
  8
DATA
  6
CONTINUOUS
 62
     7
 10
1763.000449
 20
826.000085
 11
1803.000699
 21
826.000085
  0
ARC
  8
DATA
  6
CONTINUOUS
 62
     7
 10
1803.000692
 20
808.724969
 40
9.725057
 50
209.06891
 51
330.93109
  0
LINE
  8
DATA
  6
CONTINUOUS
 62
     7
 10
1803.000699
 20
867.143186
 11
1803.000699
 21
864.143168
  0
LINE
  8
DATA
  6
CONTINUOUS
 62
     7
 10
1803.000699
 20
860.286005
 11
1803.000699
 21
857.285987
  0
LINE
  8
DATA
  6
CONTINUOUS
 62
     7
 10
1763.000449
 20
867.143186
 11
1763.000449
 21
864.143168
  0
LINE
  8
DATA
  6
CONTINUOUS
 62
     7
 10
1763.000449
 20
860.286005
 11
1763.000449
 21
857.285987
  0
LINE
  8
DATA
  6
CONTINUOUS
 62
     7
 10
1763.000449
 20
864.143168
 11
1803.000699
 21
864.143168
  0
LINE
  8
DATA
  6
CONTINUOUS
 62
     7
 10
1763.000449
 20
867.143186
 11
1803.000699
 21
867.143186
  0
LINE
  8
DATA
  6
CONTINUOUS
 62
     7
 10
1763.000449
 20
860.286005
 11
1803.000699
 21
860.286005
  0
LINE
  8
DATA
  6
CONTINUOUS
 62
     7
 10
1763.000449
 20
857.285987
 11
1803.000699
 21
857.285987
  0
LINE
  8
DATA
  6
CONTINUOUS
 62
     7
 10
1803.000699
 20
874.000367
 11
1803.000699
 21
871.000349
  0
LINE
  8
DATA
  6
CONTINUOUS
 62
     7
 10
1763.000449
 20
874.000367
 11
1763.000449
 21
871.000349
  0
LINE
  8
DATA
  6
CONTINUOUS
 62
     7
 10
1763.000449
 20
874.000367
 11
1803.000699
 21
874.000367
  0
LINE
  8
DATA
  6
CONTINUOUS
 62
     7
 10
1763.000449
 20
871.000349
 11
1803.000699
 21
871.000349
  0
ENDBLK
  8
0
  0
ENDSEC
  0
SECTION
  2
ENTITIES
  0
LINE
  8
SPEC
  6
CONTINUOUS
 62
     7
 10
175.0
 20
2650.0
 11
1600.0
 21
2650.0
  0
LINE
  8
SPEC
  6
CONTINUOUS
 62
     7
 10
175.0
 20
2612.5
 11
1600.0
 21
2612.5
  0
LINE
  8
SPEC
  6
CONTINUOUS
 62
     7
 10
175.0
 20
2537.5
 11
1600.0
 21
2537.5
  0
LINE
  8
SPEC
  6
CONTINUOUS
 62
     7
 10
175.0
 20
2462.5
 11
1600.0
 21
2462.5
  0
TEXT
  8
SPEC
  6
CONTINUOUS
 62
     7
 10
506.25
 20
2551.25
 40
25.0
  1
ラックマウントパネル仕様（オプション）: 482.6(W)×88(H)×210(D)mm
  7
TTF_DEFAULT
  0
POLYLINE
  8
HIBINO-BASE
  6
CONTINUOUS
 62
     7
 66
     1
 70
     1
 40
3.0
 41
3.0
  0
VERTEX
  8
HIBINO-BASE
 10
100.0
 20
150.0
  0
VERTEX
  8
HIBINO-BASE
 10
100.0
 20
2750.0
  0
VERTEX
  8
HIBINO-BASE
 10
1900.0
 20
2750.0
  0
VERTEX
  8
HIBINO-BASE
 10
1900.0
 20
150.0
  0
SEQEND
  8
HIBINO-BASE
  0
TEXT
  8
DIMENSIONS
  6
CONTINUOUS
 62
     7
 10
472.40404
 20
1412.5
 40
25.0
  1
185
  7
TTF_DEFAULT
  0
LINE
  8
DATA
  6
CONTINUOUS
 62
     7
 10
428.500175
 20
800.0
 11
585.001117
 21
800.0
  0
LINE
  8
DATA
  6
CONTINUOUS
 62
     7
 10
407.000055
 20
878.000473
 11
578.001075
 21
878.000473
  0
LINE
  8
DATA
  6
CONTINUOUS
 62
     7
 10
407.000055
 20
880.000485
 11
578.001075
 21
880.000485
  0
LINE
  8
DATA
  6
CONTINUOUS
 62
     7
 10
458.818539
 20
1277.001056
 11
468.182236
 21
1277.001056
  0
LINE
  8
DATA
  6
CONTINUOUS
 62
     7
 10
400.0
 20
1100.0
 11
585.001117
 21
1100.0
  0
LINE
  8
DATA
  6
CONTINUOUS
 62
     7
 10
400.0
 20
1270.001028
 11
585.001117
 21
1270.001028
  0
LINE
  8
DATA
  6
CONTINUOUS
 62
     7
 10
419.000133
 20
1021.097374
 11
501.234265
 21
1021.097374
  0
LINE
  8
DATA
  6
CONTINUOUS
 62
     7
 10
419.000175
 20
1028.902626
 11
505.985283
 21
1028.902626
  0
LINE
  8
DATA
  6
CONTINUOUS
 62
     7
 10
431.500175
 20
728.902626
 11
505.985283
 21
728.902626
  0
LINE
  8
DATA
  6
CONTINUOUS
 62
     7
 10
431.500133
 20
721.097374
 11
501.234265
 21
721.097374
  0
LINE
  8
DIMENSIONS
  6
CONTINUOUS
 62
     7
 10
400.0
 20
950.0
 11
585.001117
 21
950.0
  0
LINE
  8
DIMENSIONS
  6
CONTINUOUS
 62
     7
 10
539.582106
 20
1092.001217
 11
237.5
 21
1092.001217
  0
LINE
  8
DIMENSIONS
  6
CONTINUOUS
 62
     7
 10
400.000014
 20
1350.0
 11
527.000775
 21
1350.0
  0
TEXT
  8
DIMENSIONS
  6
CONTINUOUS
 62
     7
 10
443.403869
 20
1362.5
 40
25.0
  1
127
  7
TTF_DEFAULT
  0
LINE
  8
DIMENSIONS
  6
CONTINUOUS
 62
     7
 10
400.000014
 20
1400.0
 11
585.001117
 21
1400.0
  0
TEXT
  8
HIBINO-BASE
  6
CONTINUOUS
 62
     7
 10
171.84
 20
85.9132
 40
40.0
  1
Hibino Corporation
  7
TTF_DEFAULT
  0
LINE
  8
DATA
  6
CONTINUOUS
 62
     7
 10
409.000133
 20
1031.097374
 11
409.000133
 21
1100.0
  0
LINE
  8
DATA
  6
CONTINUOUS
 62
     7
 10
416.000175
 20
1031.902626
 11
416.000175
 21
1100.0
  0
LINE
  8
DATA
  6
CONTINUOUS
 62
     7
 10
400.0
 20
800.0
 11
421.500133
 21
800.0
  0
ARC
  8
DATA
  6
CONTINUOUS
 62
     7
 10
420.000125
 20
804.725028
 40
9.725057
 50
209.06891
 51
278.872817
  0
LINE
  8
DATA
  6
CONTINUOUS
 62
     7
 10
400.0
 20
800.0
 11
400.0
 21
873.000444
  0
LINE
  8
DATA
  6
CONTINUOUS
 62
     7
 10
402.000012
 20
800.0
 11
402.000012
 21
873.000444
  0
ARC
  8
DATA
  6
CONTINUOUS
 62
     7
 10
407.000055
 20
873.000444
 40
7.000041
 50
90.0
 51
180.0
  0
ARC
  8
DATA
  6
CONTINUOUS
 62
     7
 10
407.000055
 20
873.000444
 40
5.000029
 50
90.0
 51
180.0
  0
ARC
  8
DATA
  6
CONTINUOUS
 62
     7
 10
425.000161
 20
814.356259
 40
5.222523
 50
312.080759
 51
227.919241
  0
ARC
  8
DATA
  6
CONTINUOUS
 62
     7
 10
425.000161
 20
814.356259
 40
3.500028
 50
0.0
 51
180.0
  0
ARC
  8
DATA
  6
CONTINUOUS
 62
     7
 10
419.000133
 20
1031.097374
 40
10.0
 50
180.0
 51
270.0
  0
ARC
  8
DATA
  6
CONTINUOUS
 62
     7
 10
419.000175
 20
1031.902626
 40
3.0
 50
180.0
 51
270.0
  0
LINE
  8
DATA
  6
CONTINUOUS
 62
     7
 10
428.500175
 20
814.356259
 11
428.500175
 21
731.902626
  0
ARC
  8
DATA
  6
CONTINUOUS
 62
     7
 10
431.500175
 20
731.902626
 40
3.0
 50
180.0
 51
270.0
  0
LINE
  8
DATA
  6
CONTINUOUS
 62
     7
 10
421.500133
 20
814.356259
 11
421.500133
 21
731.097374
  0
ARC
  8
DATA
  6
CONTINUOUS
 62
     7
 10
431.500133
 20
731.097374
 40
10.0
 50
180.0
 51
270.0
  0
LINE
  8
DIMENSIONS
  6
CONTINUOUS
 62
     7
 10
300.0
 20
800.0
 11
300.0
 21
880.000485
  0
LINE
  8
DIMENSIONS
  6
CONTINUOUS
 62
     7
 10
390.0
 20
800.0
 11
287.5
 21
800.0
  0
LINE
  8
DIMENSIONS
  6
CONTINUOUS
 62
     7
 10
303.3332
 20
820.0
 11
300.0
 21
800.0
  0
LINE
  8
DIMENSIONS
  6
CONTINUOUS
 62
     7
 10
296.6668
 20
820.0
 11
300.0
 21
800.0
  0
LINE
  8
DIMENSIONS
  6
CONTINUOUS
 62
     7
 10
303.3332
 20
860.000485
 11
300.0
 21
880.000485
  0
LINE
  8
DIMENSIONS
  6
CONTINUOUS
 62
     7
 10
296.6668
 20
860.000485
 11
300.0
 21
880.000485
  0
LINE
  8
DIMENSIONS
  6
CONTINUOUS
 62
     7
 10
250.0
 20
880.000485
 11
250.0
 21
794.999971
  0
LINE
  8
DIMENSIONS
  6
CONTINUOUS
 62
     7
 10
397.000055
 20
880.000485
 11
237.5
 21
880.000485
  0
LINE
  8
DIMENSIONS
  6
CONTINUOUS
 62
     7
 10
410.000125
 20
794.999971
 11
237.5
 21
794.999971
  0
LINE
  8
DIMENSIONS
  6
CONTINUOUS
 62
     7
 10
246.6668
 20
860.000485
 11
250.0
 21
880.000485
  0
LINE
  8
DIMENSIONS
  6
CONTINUOUS
 62
     7
 10
253.3332
 20
860.000485
 11
250.0
 21
880.000485
  0
LINE
  8
DIMENSIONS
  6
CONTINUOUS
 62
     7
 10
246.6668
 20
814.999971
 11
250.0
 21
794.999971
  0
LINE
  8
DIMENSIONS
  6
CONTINUOUS
 62
     7
 10
253.3332
 20
814.999971
 11
250.0
 21
794.999971
  0
LINE
  8
DIMENSIONS
  6
CONTINUOUS
 62
     7
 10
400.0
 20
883.000444
 11
400.0
 21
962.5
  0
LINE
  8
DIMENSIONS
  6
CONTINUOUS
 62
     7
 10
420.0
 20
946.6668
 11
400.0
 21
950.0
  0
LINE
  8
DIMENSIONS
  6
CONTINUOUS
 62
     7
 10
420.0
 20
953.3332
 11
400.0
 21
950.0
  0
TEXT
  8
DIMENSIONS
  6
CONTINUOUS
 62
     7
 10
287.5
 20
826.984195
 40
25.0
  1
80
 50
90.0
  7
TTF_DEFAULT
  0
TEXT
  8
DIMENSIONS
  6
CONTINUOUS
 62
     7
 10
237.5
 20
824.48418
 40
25.0
  1
85
 50
90.0
  7
TTF_DEFAULT
  0
LINE
  8
DATA
  6
CONTINUOUS
 62
     7
 10
422.727417
 20
1302.001203
 11
424.727428
 21
1302.001203
  0
LINE
  8
DATA
  6
CONTINUOUS
 62
     7
 10
411.363708
 20
1302.001203
 11
413.36372
 21
1302.001203
  0
LINE
  8
DATA
  6
CONTINUOUS
 62
     7
 10
400.000014
 20
1302.001203
 11
402.000026
 21
1302.001203
  0
LINE
  8
DATA
  6
CONTINUOUS
 62
     7
 10
434.091125
 20
1302.001203
 11
436.091137
 21
1302.001203
  0
LINE
  8
DATA
  6
CONTINUOUS
 62
     7
 10
445.454833
 20
1302.001203
 11
447.454845
 21
1302.001203
  0
LINE
  8
DATA
  6
CONTINUOUS
 62
     7
 10
456.818528
 20
1302.001203
 11
458.818539
 21
1302.001203
  0
LINE
  8
DATA
  6
CONTINUOUS
 62
     7
 10
400.0
 20
1270.001028
 11
400.0
 21
1100.0
  0
CIRCLE
  8
DATA
  6
CONTINUOUS
 62
     7
 10
450.000308
 20
1110.000045
 40
3.500028
  0
CIRCLE
  8
DATA
  6
CONTINUOUS
 62
     7
 10
450.000308
 20
1110.000045
 40
2.987573
  0
LINE
  8
DATA
  6
CONTINUOUS
 62
     7
 10
449.745763
 20
1107.542878
 11
449.745763
 21
1109.109138
  0
LINE
  8
DATA
  6
CONTINUOUS
 62
     7
 10
450.254853
 20
1107.542878
 11
450.254853
 21
1109.109138
  0
CIRCLE
  8
DATA
  6
CONTINUOUS
 62
     7
 10
450.891229
 20
1108.472775
 40
0.636362
  0
ARC
  8
DATA
  6
CONTINUOUS
 62
     7
 10
450.000308
 20
1110.000045
 40
2.470321
 50
264.085662
 51
275.914338
  0
CIRCLE
  8
DATA
  6
CONTINUOUS
 62
     7
 10
426.000167
 20
1260.000956
 40
2.987573
  0
CIRCLE
  8
DATA
  6
CONTINUOUS
 62
     7
 10
426.000167
 20
1260.000956
 40
3.500028
  0
LINE
  8
DATA
  6
CONTINUOUS
 62
     7
 10
426.891074
 20
1259.746411
 11
428.457333
 21
1259.746411
  0
LINE
  8
DATA
  6
CONTINUOUS
 62
     7
 10
426.891074
 20
1260.2555
 11
428.457333
 21
1260.2555
  0
LINE
  8
DATA
  6
CONTINUOUS
 62
     7
 10
424.727428
 20
1277.001056
 11
434.091125
 21
1277.001056
  0
LINE
  8
DATA
  6
CONTINUOUS
 62
     7
 10
426.254712
 20
1260.891877
 11
426.254712
 21
1262.458136
  0
LINE
  8
DATA
  6
CONTINUOUS
 62
     7
 10
425.745622
 20
1260.891877
 11
425.745622
 21
1262.458136
  0
ARC
  8
DATA
  6
CONTINUOUS
 62
     7
 10
425.109246
 20
1259.110034
 40
0.636362
 50
0.0
 51
90.0
  0
LINE
  8
DATA
  6
CONTINUOUS
 62
     7
 10
425.745622
 20
1257.543775
 11
425.745622
 21
1259.110034
  0
ARC
  8
DATA
  6
CONTINUOUS
 62
     7
 10
426.891074
 20
1259.110034
 40
0.636362
 50
90.0
 51
180.0
  0
LINE
  8
DATA
  6
CONTINUOUS
 62
     7
 10
426.254712
 20
1257.543775
 11
426.254712
 21
1259.110034
  0
CIRCLE
  8
DATA
  6
CONTINUOUS
 62
     7
 10
426.891074
 20
1258.473672
 40
0.636362
  0
ARC
  8
DATA
  6
CONTINUOUS
 62
     7
 10
426.891074
 20
1260.891877
 40
0.636362
 50
180.0
 51
270.0
  0
ARC
  8
DATA
  6
CONTINUOUS
 62
     7
 10
425.109246
 20
1260.891877
 40
0.636362
 50
270.0
 51
0.0
  0
ARC
  8
DATA
  6
CONTINUOUS
 62
     7
 10
426.000167
 20
1260.000956
 40
2.470321
 50
264.085662
 51
275.914338
  0
ARC
  8
DATA
  6
CONTINUOUS
 62
     7
 10
426.000167
 20
1260.000956
 40
2.470321
 50
174.085662
 51
185.914338
  0
LINE
  8
DATA
  6
CONTINUOUS
 62
     7
 10
423.542987
 20
1259.746411
 11
425.109246
 21
1259.746411
  0
LINE
  8
DATA
  6
CONTINUOUS
 62
     7
 10
423.542987
 20
1260.2555
 11
425.109246
 21
1260.2555
  0
ARC
  8
DATA
  6
CONTINUOUS
 62
     7
 10
426.000167
 20
1260.000956
 40
2.470321
 50
84.085662
 51
95.914338
  0
LINE
  8
DATA
  6
CONTINUOUS
 62
     7
 10
402.000026
 20
1277.001056
 11
411.363708
 21
1277.001056
  0
LINE
  8
DATA
  6
CONTINUOUS
 62
     7
 10
413.36372
 20
1277.001056
 11
422.727417
 21
1277.001056
  0
ARC
  8
DATA
  6
CONTINUOUS
 62
     7
 10
449.109401
 20
1109.109138
 40
0.636362
 50
0.0
 51
90.0
  0
ARC
  8
DATA
  6
CONTINUOUS
 62
     7
 10
450.891229
 20
1109.109138
 40
0.636362
 50
90.0
 51
180.0
  0
LINE
  8
DATA
  6
CONTINUOUS
 62
     7
 10
447.543128
 20
1109.7455
 11
449.109401
 21
1109.7455
  0
LINE
  8
DATA
  6
CONTINUOUS
 62
     7
 10
450.891229
 20
1109.7455
 11
452.457489
 21
1109.7455
  0
ARC
  8
DATA
  6
CONTINUOUS
 62
     7
 10
450.891229
 20
1110.890966
 40
0.636362
 50
180.0
 51
270.0
  0
LINE
  8
DATA
  6
CONTINUOUS
 62
     7
 10
450.891229
 20
1110.254604
 11
452.457489
 21
1110.254604
  0
LINE
  8
DATA
  6
CONTINUOUS
 62
     7
 10
450.254853
 20
1110.890966
 11
450.254853
 21
1112.457225
  0
ARC
  8
DATA
  6
CONTINUOUS
 62
     7
 10
449.109401
 20
1110.890966
 40
0.636362
 50
270.0
 51
0.0
  0
LINE
  8
DATA
  6
CONTINUOUS
 62
     7
 10
449.745763
 20
1110.890966
 11
449.745763
 21
1112.457225
  0
LINE
  8
DATA
  6
CONTINUOUS
 62
     7
 10
447.543128
 20
1110.254604
 11
449.109401
 21
1110.254604
  0
ARC
  8
DATA
  6
CONTINUOUS
 62
     7
 10
450.000308
 20
1110.000045
 40
2.470321
 50
174.085662
 51
185.914338
  0
ARC
  8
DATA
  6
CONTINUOUS
 62
     7
 10
450.000308
 20
1110.000045
 40
2.470321
 50
84.085662
 51
95.914338
  0
ARC
  8
DATA
  6
CONTINUOUS
 62
     7
 10
450.000308
 20
1110.000045
 40
2.470321
 50
354.085662
 51
5.914338
  0
ARC
  8
DATA
  6
CONTINUOUS
 62
     7
 10
426.000167
 20
1260.000956
 40
2.470321
 50
354.085662
 51
5.914338
  0
LINE
  8
DATA
  6
CONTINUOUS
 62
     7
 10
447.454845
 20
1277.001056
 11
456.818528
 21
1277.001056
  0
LINE
  8
DATA
  6
CONTINUOUS
 62
     7
 10
436.091137
 20
1277.001056
 11
445.454833
 21
1277.001056
  0
LINE
  8
DATA
  6
CONTINUOUS
 62
     7
 10
400.000014
 20
1270.001014
 11
400.000014
 21
1302.001203
  0
LINE
  8
DATA
  6
CONTINUOUS
 62
     7
 10
424.727428
 20
1277.001056
 11
424.727428
 21
1302.001203
  0
LINE
  8
DATA
  6
CONTINUOUS
 62
     7
 10
422.727417
 20
1277.001056
 11
422.727417
 21
1302.001203
  0
LINE
  8
DATA
  6
CONTINUOUS
 62
     7
 10
413.36372
 20
1277.001056
 11
413.36372
 21
1302.001203
  0
LINE
  8
DATA
  6
CONTINUOUS
 62
     7
 10
411.363708
 20
1277.001056
 11
411.363708
 21
1302.001203
  0
LINE
  8
DATA
  6
CONTINUOUS
 62
     7
 10
402.000026
 20
1277.001056
 11
402.000026
 21
1302.001203
  0
LINE
  8
DATA
  6
CONTINUOUS
 62
     7
 10
434.091125
 20
1277.001056
 11
434.091125
 21
1302.001203
  0
LINE
  8
DATA
  6
CONTINUOUS
 62
     7
 10
447.454845
 20
1277.001056
 11
447.454845
 21
1302.001203
  0
LINE
  8
DATA
  6
CONTINUOUS
 62
     7
 10
445.454833
 20
1277.001056
 11
445.454833
 21
1302.001203
  0
LINE
  8
DATA
  6
CONTINUOUS
 62
     7
 10
458.818539
 20
1277.001056
 11
458.818539
 21
1302.001203
  0
LINE
  8
DATA
  6
CONTINUOUS
 62
     7
 10
456.818528
 20
1277.001056
 11
456.818528
 21
1302.001203
  0
LINE
  8
DATA
  6
CONTINUOUS
 62
     7
 10
436.091137
 20
1277.001056
 11
436.091137
 21
1302.001203
  0
LINE
  8
DIMENSIONS
  6
CONTINUOUS
 62
     7
 10
300.0
 20
1302.001203
 11
300.0
 21
1342.001203
  0
LINE
  8
DIMENSIONS
  6
CONTINUOUS
 62
     7
 10
296.6668
 20
1322.001203
 11
300.0
 21
1302.001203
  0
LINE
  8
DIMENSIONS
  6
CONTINUOUS
 62
     7
 10
303.3332
 20
1322.001203
 11
300.0
 21
1302.001203
  0
TEXT
  8
DIMENSIONS
  6
CONTINUOUS
 62
     7
 10
287.5
 20
1354.501203
 40
25.0
  1
32
 50
90.0
  7
TTF_DEFAULT
  0
LINE
  8
DIMENSIONS
  6
CONTINUOUS
 62
     7
 10
300.0
 20
1270.001028
 11
300.0
 21
1100.0
  0
LINE
  8
DIMENSIONS
  6
CONTINUOUS
 62
     7
 10
390.0
 20
1270.001028
 11
287.5
 21
1270.001028
  0
LINE
  8
DIMENSIONS
  6
CONTINUOUS
 62
     7
 10
390.0
 20
1100.0
 11
287.5
 21
1100.0
  0
LINE
  8
DIMENSIONS
  6
CONTINUOUS
 62
     7
 10
296.6668
 20
1250.001028
 11
300.0
 21
1270.001028
  0
LINE
  8
DIMENSIONS
  6
CONTINUOUS
 62
     7
 10
303.3332
 20
1250.001028
 11
300.0
 21
1270.001028
  0
LINE
  8
DIMENSIONS
  6
CONTINUOUS
 62
     7
 10
296.6668
 20
1120.0
 11
300.0
 21
1100.0
  0
LINE
  8
DIMENSIONS
  6
CONTINUOUS
 62
     7
 10
303.3332
 20
1120.0
 11
300.0
 21
1100.0
  0
TEXT
  8
DIMENSIONS
  6
CONTINUOUS
 62
     7
 10
287.5
 20
1165.294439
 40
25.0
  1
170
 50
90.0
  7
TTF_DEFAULT
  0
LINE
  8
DIMENSIONS
  6
CONTINUOUS
 62
     7
 10
250.0
 20
1302.001203
 11
250.0
 21
1092.001217
  0
LINE
  8
DIMENSIONS
  6
CONTINUOUS
 62
     7
 10
390.000014
 20
1302.001203
 11
237.5
 21
1302.001203
  0
LINE
  8
DIMENSIONS
  6
CONTINUOUS
 62
     7
 10
246.6668
 20
1282.001203
 11
250.0
 21
1302.001203
  0
LINE
  8
DIMENSIONS
  6
CONTINUOUS
 62
     7
 10
253.3332
 20
1282.001203
 11
250.0
 21
1302.001203
  0
LINE
  8
DIMENSIONS
  6
CONTINUOUS
 62
     7
 10
246.6668
 20
1112.001217
 11
250.0
 21
1092.001217
  0
LINE
  8
DIMENSIONS
  6
CONTINUOUS
 62
     7
 10
253.3332
 20
1112.001217
 11
250.0
 21
1092.001217
  0
TEXT
  8
DIMENSIONS
  6
CONTINUOUS
 62
     7
 10
237.5
 20
1177.295135
 40
25.0
  1
210
 50
90.0
  7
TTF_DEFAULT
  0
LINE
  8
DIMENSIONS
  6
CONTINUOUS
 62
     7
 10
420.000014
 20
1346.6668
 11
400.000014
 21
1350.0
  0
LINE
  8
DIMENSIONS
  6
CONTINUOUS
 62
     7
 10
420.000014
 20
1353.3332
 11
400.000014
 21
1350.0
  0
LINE
  8
DIMENSIONS
  6
CONTINUOUS
 62
     7
 10
400.000014
 20
1312.001203
 11
400.000014
 21
1412.5
  0
LINE
  8
DIMENSIONS
  6
CONTINUOUS
 62
     7
 10
420.000014
 20
1396.6668
 11
400.000014
 21
1400.0
  0
LINE
  8
DIMENSIONS
  6
CONTINUOUS
 62
     7
 10
420.000014
 20
1403.3332
 11
400.000014
 21
1400.0
  0
LINE
  8
DATA
  6
CONTINUOUS
 62
     7
 10
820.001028
 20
800.0
 11
650.0
 21
800.0
  0
LINE
  8
DATA
  6
CONTINUOUS
 62
     7
 10
650.0
 20
880.000485
 11
852.001217
 21
880.000485
  0
DIMENSION
  8
DIMENSIONS
 62
     7
  2
*D0
 10
852.001217
 20
950.0
 11
748.820244
 21
975.0
 13
642.001217
 23
861.630728
 14
852.001217
 24
880.000485
  0
TEXT
  8
DATA
  6
CONTINUOUS
 62
     7
 10
575.082245
 20
867.130797
 40
5.0
  1
ON
  7
TTF_DEFAULT
  0
LINE
  8
DATA
  6
CONTINUOUS
 62
     7
 10
569.582224
 20
867.130768
 11
549.582106
 21
867.130768
  0
LINE
  8
DATA
  6
CONTINUOUS
 62
     7
 10
547.082098
 20
872.130797
 11
572.082245
 21
872.130797
  0
LINE
  8
DATA
  6
CONTINUOUS
 62
     7
 10
547.082098
 20
872.130797
 11
572.082245
 21
872.130797
  0
LINE
  8
DATA
  6
CONTINUOUS
 62
     7
 10
549.582106
 20
857.130709
 11
569.582224
 21
857.130709
  0
LINE
  8
DATA
  6
CONTINUOUS
 62
     7
 10
549.582106
 20
861.630728
 11
569.582224
 21
861.630728
  0
TEXT
  8
DATA
  6
CONTINUOUS
 62
     7
 10
574.082245
 20
845.130607
 40
5.0
  1
OFF
  7
TTF_DEFAULT
  0
LINE
  8
DATA
  6
CONTINUOUS
 62
     7
 10
547.082098
 20
842.130607
 11
572.082245
 21
842.130607
  0
LINE
  8
DATA
  6
CONTINUOUS
 62
     7
 10
549.582106
 20
847.130636
 11
569.582224
 21
847.130636
  0
LINE
  8
DATA
  6
CONTINUOUS
 62
     7
 10
550.605792
 20
826.057456
 11
565.317421
 21
826.057456
  0
LINE
  8
DATA
  6
CONTINUOUS
 62
     7
 10
572.082245
 20
842.130607
 11
572.082245
 21
872.130797
  0
LINE
  8
DATA
  6
CONTINUOUS
 62
     7
 10
569.582224
 20
847.130636
 11
569.582224
 21
867.130768
  0
LINE
  8
DATA
  6
CONTINUOUS
 62
     7
 10
547.082098
 20
842.130607
 11
547.082098
 21
872.130797
  0
LINE
  8
DATA
  6
CONTINUOUS
 62
     7
 10
549.582106
 20
867.130768
 11
549.582106
 21
847.130636
  0
ARC
  8
DATA
  6
CONTINUOUS
 62
     7
 10
565.001006
 20
804.725028
 40
9.725057
 50
209.06891
 51
330.93109
  0
LINE
  8
DATA
  6
CONTINUOUS
 62
     7
 10
553.995289
 20
819.441262
 11
553.995289
 21
817.44125
  0
LINE
  8
DATA
  6
CONTINUOUS
 62
     7
 10
561.927924
 20
819.441262
 11
561.927924
 21
817.44125
  0
LINE
  8
DATA
  6
CONTINUOUS
 62
     7
 10
557.961606
 20
822.407574
 11
557.961606
 21
820.407562
  0
LINE
  8
DATA
  6
CONTINUOUS
 62
     7
 10
570.794309
 20
814.644857
 11
570.794309
 21
820.580582
  0
LINE
  8
DATA
  6
CONTINUOUS
 62
     7
 10
545.794147
 20
814.644857
 11
545.794147
 21
821.245825
  0
LINE
  8
DATA
  6
CONTINUOUS
 62
     7
 10
545.794147
 20
814.644857
 11
570.794309
 21
814.644857
  0
LINE
  8
DATA
  6
CONTINUOUS
 62
     7
 10
570.794309
 20
820.580582
 11
565.317421
 21
826.057456
  0
LINE
  8
DATA
  6
CONTINUOUS
 62
     7
 10
574.001052
 20
832.458177
 11
574.001052
 21
809.458028
  0
LINE
  8
DATA
  6
CONTINUOUS
 62
     7
 10
545.794147
 20
821.245825
 11
550.605792
 21
826.057456
  0
LINE
  8
DATA
  6
CONTINUOUS
 62
     7
 10
585.001117
 20
800.0
 11
585.001117
 21
873.000444
  0
LINE
  8
DATA
  6
CONTINUOUS
 62
     7
 10
583.001105
 20
800.0
 11
583.001105
 21
873.000444
  0
ARC
  8
DATA
  6
CONTINUOUS
 62
     7
 10
578.001075
 20
873.000444
 40
7.000041
 50
0.0
 51
90.0
  0
ARC
  8
DATA
  6
CONTINUOUS
 62
     7
 10
578.001075
 20
873.000444
 40
5.000029
 50
0.0
 51
90.0
  0
LINE
  8
DATA
  6
CONTINUOUS
 62
     7
 10
526.000769
 20
832.458177
 11
526.000769
 21
809.458028
  0
LINE
  8
DATA
  6
CONTINUOUS
 62
     7
 10
574.001052
 20
832.458177
 11
526.000769
 21
832.458177
  0
LINE
  8
DATA
  6
CONTINUOUS
 62
     7
 10
526.000769
 20
809.458028
 11
574.001052
 21
809.458028
  0
LINE
  8
DATA
  6
CONTINUOUS
 62
     7
 10
646.999982
 20
872.130797
 11
650.0
 21
872.130797
  0
LINE
  8
DATA
  6
CONTINUOUS
 62
     7
 10
646.999982
 20
861.630728
 11
642.001217
 21
861.630728
  0
ARC
  8
DATA
  6
CONTINUOUS
 62
     7
 10
632.753425
 20
850.47412
 40
14.491085
 50
10.540575
 51
50.344425
  0
LINE
  8
DATA
  6
CONTINUOUS
 62
     7
 10
650.0
 20
832.458177
 11
646.999982
 21
832.458177
  0
LINE
  8
DATA
  6
CONTINUOUS
 62
     7
 10
646.999982
 20
842.130607
 11
650.0
 21
842.130607
  0
ARC
  8
DATA
  6
CONTINUOUS
 62
     7
 10
647.501256
 20
861.630728
 40
5.500039
 50
95.229194
 51
180.0
  0
LINE
  8
DATA
  6
CONTINUOUS
 62
     7
 10
646.999982
 20
872.130797
 11
646.999982
 21
842.130607
  0
CIRCLE
  8
DATA
  6
CONTINUOUS
 62
     7
 10
686.000212
 20
810.000059
 40
3.500028
  0
CIRCLE
  8
DATA
  6
CONTINUOUS
 62
     7
 10
686.000212
 20
810.000059
 40
2.987573
  0
ARC
  8
DATA
  6
CONTINUOUS
 62
     7
 10
686.891133
 20
809.109138
 40
0.636362
 50
90.0
 51
180.0
  0
ARC
  8
DATA
  6
CONTINUOUS
 62
     7
 10
685.109305
 20
809.109138
 40
0.636362
 50
0.0
 51
90.0
  0
LINE
  8
DATA
  6
CONTINUOUS
 62
     7
 10
686.254757
 20
809.109138
 11
686.254757
 21
807.542878
  0
LINE
  8
DATA
  6
CONTINUOUS
 62
     7
 10
685.745667
 20
809.109138
 11
685.745667
 21
807.542878
  0
ARC
  8
DATA
  6
CONTINUOUS
 62
     7
 10
686.000212
 20
810.000059
 40
2.470321
 50
264.085662
 51
275.914338
  0
ARC
  8
DATA
  6
CONTINUOUS
 62
     7
 10
685.109305
 20
810.890966
 40
0.636362
 50
270.0
 51
0.0
  0
LINE
  8
DATA
  6
CONTINUOUS
 62
     7
 10
683.543045
 20
810.254604
 11
685.109305
 21
810.254604
  0
LINE
  8
DATA
  6
CONTINUOUS
 62
     7
 10
685.745667
 20
812.457239
 11
685.745667
 21
810.890966
  0
ARC
  8
DATA
  6
CONTINUOUS
 62
     7
 10
686.891133
 20
810.890966
 40
0.636362
 50
180.0
 51
270.0
  0
LINE
  8
DATA
  6
CONTINUOUS
 62
     7
 10
686.891133
 20
810.254604
 11
688.457392
 21
810.254604
  0
LINE
  8
DATA
  6
CONTINUOUS
 62
     7
 10
686.254757
 20
812.457239
 11
686.254757
 21
810.890966
  0
CIRCLE
  8
DATA
  6
CONTINUOUS
 62
     7
 10
686.891133
 20
811.527342
 40
0.636362
  0
LINE
  8
DATA
  6
CONTINUOUS
 62
     7
 10
686.891133
 20
809.745514
 11
688.457392
 21
809.745514
  0
LINE
  8
DATA
  6
CONTINUOUS
 62
     7
 10
683.543045
 20
809.745514
 11
685.109305
 21
809.745514
  0
ARC
  8
DATA
  6
CONTINUOUS
 62
     7
 10
686.000212
 20
810.000059
 40
2.470321
 50
174.085662
 51
185.914338
  0
ARC
  8
DATA
  6
CONTINUOUS
 62
     7
 10
686.000212
 20
810.000059
 40
2.470321
 50
354.085662
 51
5.914338
  0
ARC
  8
DATA
  6
CONTINUOUS
 62
     7
 10
686.000212
 20
810.000059
 40
2.470321
 50
84.085662
 51
95.914338
  0
LINE
  8
DATA
  6
CONTINUOUS
 62
     7
 10
646.999982
 20
809.458028
 11
650.0
 21
809.458028
  0
ARC
  8
DATA
  6
CONTINUOUS
 62
     7
 10
670.000125
 20
804.725028
 40
9.725057
 50
209.06891
 51
330.93109
  0
LINE
  8
DATA
  6
CONTINUOUS
 62
     7
 10
646.999982
 20
832.458177
 11
646.999982
 21
809.458028
  0
LINE
  8
DATA
  6
CONTINUOUS
 62
     7
 10
650.0
 20
880.000485
 11
650.0
 21
800.0
  0
LINE
  8
DATA
  6
CONTINUOUS
 62
     7
 10
568.679049
 20
1013.499932
 11
568.679049
 21
1036.500068
  0
LINE
  8
DATA
  6
CONTINUOUS
 62
     7
 10
576.679096
 20
1013.499932
 11
576.679096
 21
1036.500068
  0
LINE
  8
DATA
  6
CONTINUOUS
 62
     7
 10
579.999721
 20
1013.74993
 11
579.999721
 21
1036.25007
  0
LINE
  8
DATA
  6
CONTINUOUS
 62
     7
 10
605.391767
 20
1010.499915
 11
605.391767
 21
1039.500085
  0
CIRCLE
  8
DATA
  6
CONTINUOUS
 62
     7
 10
572.679072
 20
1016.334425
 40
1.500016
  0
CIRCLE
  8
DATA
  6
CONTINUOUS
 62
     7
 10
572.679072
 20
1016.334425
 40
2.464995
  0
LINE
  8
DATA
  6
CONTINUOUS
 62
     7
 10
625.0
 20
1014.999934
 11
625.0
 21
1035.000066
  0
LINE
  8
DATA
  6
CONTINUOUS
 62
     7
 10
619.891859
 20
1010.499915
 11
619.891859
 21
1039.500085
  0
LINE
  8
DATA
  6
CONTINUOUS
 62
     7
 10
605.391767
 20
1012.91659
 11
619.891859
 21
1012.91659
  0
LINE
  8
DATA
  6
CONTINUOUS
 62
     7
 10
605.391767
 20
1011.708259
 11
619.891859
 21
1011.708259
  0
LINE
  8
DATA
  6
CONTINUOUS
 62
     7
 10
605.391767
 20
1010.499915
 11
619.891859
 21
1010.499915
  0
LINE
  8
DATA
  6
CONTINUOUS
 62
     7
 10
605.391767
 20
1015.333279
 11
619.891859
 21
1015.333279
  0
LINE
  8
DATA
  6
CONTINUOUS
 62
     7
 10
605.391767
 20
1014.124934
 11
619.891859
 21
1014.124934
  0
LINE
  8
DATA
  6
CONTINUOUS
 62
     7
 10
599.999839
 20
1011.499921
 11
605.391767
 21
1011.499921
  0
ARC
  8
DATA
  6
CONTINUOUS
 62
     7
 10
569.679055
 20
1013.499932
 40
1.000006
 50
180.0
 51
270.0
  0
ARC
  8
DATA
  6
CONTINUOUS
 62
     7
 10
575.67909
 20
1013.499932
 40
1.000006
 50
270.0
 51
0.0
  0
LINE
  8
DATA
  6
CONTINUOUS
 62
     7
 10
575.67909
 20
1012.499926
 11
569.679055
 21
1012.499926
  0
LINE
  8
DATA
  6
CONTINUOUS
 62
     7
 10
579.999721
 20
1013.74993
 11
599.999839
 21
1011.499921
  0
LINE
  8
DATA
  6
CONTINUOUS
 62
     7
 10
625.0
 20
1014.999934
 11
619.891859
 21
1014.999934
  0
LINE
  8
DATA
  6
CONTINUOUS
 62
     7
 10
605.391767
 20
1018.958298
 11
619.891859
 21
1018.958298
  0
LINE
  8
DATA
  6
CONTINUOUS
 62
     7
 10
605.391767
 20
1020.166643
 11
619.891859
 21
1020.166643
  0
LINE
  8
DATA
  6
CONTINUOUS
 62
     7
 10
605.391767
 20
1016.541623
 11
619.891859
 21
1016.541623
  0
LINE
  8
DATA
  6
CONTINUOUS
 62
     7
 10
605.391767
 20
1017.749954
 11
619.891859
 21
1017.749954
  0
LINE
  8
DATA
  6
CONTINUOUS
 62
     7
 10
605.391767
 20
1027.416682
 11
619.891859
 21
1027.416682
  0
LINE
  8
DATA
  6
CONTINUOUS
 62
     7
 10
605.391767
 20
1029.833357
 11
619.891859
 21
1029.833357
  0
LINE
  8
DATA
  6
CONTINUOUS
 62
     7
 10
605.391767
 20
1028.625027
 11
619.891859
 21
1028.625027
  0
LINE
  8
DATA
  6
CONTINUOUS
 62
     7
 10
605.391767
 20
1032.250046
 11
619.891859
 21
1032.250046
  0
LINE
  8
DATA
  6
CONTINUOUS
 62
     7
 10
605.391767
 20
1031.041702
 11
619.891859
 21
1031.041702
  0
LINE
  8
DATA
  6
CONTINUOUS
 62
     7
 10
605.391767
 20
1026.208338
 11
619.891859
 21
1026.208338
  0
LINE
  8
DATA
  6
CONTINUOUS
 62
     7
 10
605.391767
 20
1023.791662
 11
619.891859
 21
1023.791662
  0
LINE
  8
DATA
  6
CONTINUOUS
 62
     7
 10
605.391767
 20
1021.374973
 11
619.891859
 21
1021.374973
  0
LINE
  8
DATA
  6
CONTINUOUS
 62
     7
 10
605.391767
 20
1022.583318
 11
619.891859
 21
1022.583318
  0
LINE
  8
DATA
  6
CONTINUOUS
 62
     7
 10
605.391767
 20
1025.000007
 11
619.891859
 21
1025.000007
  0
LINE
  8
DATA
  6
CONTINUOUS
 62
     7
 10
605.391767
 20
1035.875066
 11
619.891859
 21
1035.875066
  0
LINE
  8
DATA
  6
CONTINUOUS
 62
     7
 10
605.391767
 20
1034.666721
 11
619.891859
 21
1034.666721
  0
LINE
  8
DATA
  6
CONTINUOUS
 62
     7
 10
605.391767
 20
1033.458391
 11
619.891859
 21
1033.458391
  0
LINE
  8
DATA
  6
CONTINUOUS
 62
     7
 10
605.391767
 20
1039.500085
 11
619.891859
 21
1039.500085
  0
LINE
  8
DATA
  6
CONTINUOUS
 62
     7
 10
605.391767
 20
1039.500085
 11
619.891859
 21
1039.500085
  0
LINE
  8
DATA
  6
CONTINUOUS
 62
     7
 10
605.391767
 20
1038.291741
 11
619.891859
 21
1038.291741
  0
LINE
  8
DATA
  6
CONTINUOUS
 62
     7
 10
605.391767
 20
1037.08341
 11
619.891859
 21
1037.08341
  0
CIRCLE
  8
DATA
  6
CONTINUOUS
 62
     7
 10
572.679072
 20
1033.665575
 40
1.500016
  0
CIRCLE
  8
DATA
  6
CONTINUOUS
 62
     7
 10
572.679072
 20
1033.665575
 40
2.464995
  0
LINE
  8
DATA
  6
CONTINUOUS
 62
     7
 10
555.22243
 20
1018.499962
 11
555.22243
 21
1031.500038
  0
LINE
  8
DATA
  6
CONTINUOUS
 62
     7
 10
555.22243
 20
1018.499962
 11
568.679049
 21
1018.499962
  0
LINE
  8
DATA
  6
CONTINUOUS
 62
     7
 10
568.679049
 20
1017.599335
 11
569.310405
 21
1017.599335
  0
ARC
  8
DATA
  6
CONTINUOUS
 62
     7
 10
572.679072
 20
1015.442433
 40
4.000024
 50
32.630765
 51
147.369235
  0
LINE
  8
DATA
  6
CONTINUOUS
 62
     7
 10
576.679096
 20
1017.599335
 11
576.047753
 21
1017.599335
  0
LINE
  8
DATA
  6
CONTINUOUS
 62
     7
 10
576.679096
 20
1018.499962
 11
579.999721
 21
1018.499962
  0
LINE
  8
DATA
  6
CONTINUOUS
 62
     7
 10
555.22243
 20
1031.500038
 11
568.679049
 21
1031.500038
  0
LINE
  8
DATA
  6
CONTINUOUS
 62
     7
 10
568.679049
 20
1032.400665
 11
569.310405
 21
1032.400665
  0
LINE
  8
DATA
  6
CONTINUOUS
 62
     7
 10
576.679096
 20
1031.500038
 11
579.999721
 21
1031.500038
  0
LINE
  8
DATA
  6
CONTINUOUS
 62
     7
 10
576.679096
 20
1032.400665
 11
576.047753
 21
1032.400665
  0
ARC
  8
DATA
  6
CONTINUOUS
 62
     7
 10
572.679072
 20
1034.557567
 40
4.000024
 50
212.630765
 51
327.369235
  0
LINE
  8
DATA
  6
CONTINUOUS
 62
     7
 10
599.999839
 20
1038.500079
 11
605.391767
 21
1038.500079
  0
ARC
  8
DATA
  6
CONTINUOUS
 62
     7
 10
569.679055
 20
1036.500068
 40
1.000006
 50
90.0
 51
180.0
  0
ARC
  8
DATA
  6
CONTINUOUS
 62
     7
 10
575.67909
 20
1036.500068
 40
1.000006
 50
0.0
 51
90.0
  0
LINE
  8
DATA
  6
CONTINUOUS
 62
     7
 10
569.679055
 20
1037.500074
 11
575.67909
 21
1037.500074
  0
LINE
  8
DATA
  6
CONTINUOUS
 62
     7
 10
579.999721
 20
1036.25007
 11
599.999839
 21
1038.500079
  0
LINE
  8
DATA
  6
CONTINUOUS
 62
     7
 10
625.0
 20
1019.3819
 11
619.891859
 21
1019.3819
  0
LINE
  8
DATA
  6
CONTINUOUS
 62
     7
 10
625.0
 20
1018.381894
 11
619.891859
 21
1018.381894
  0
LINE
  8
DATA
  6
CONTINUOUS
 62
     7
 10
625.0
 20
1026.208338
 11
619.891859
 21
1026.208338
  0
LINE
  8
DATA
  6
CONTINUOUS
 62
     7
 10
625.0
 20
1027.208343
 11
619.891859
 21
1027.208343
  0
LINE
  8
DATA
  6
CONTINUOUS
 62
     7
 10
625.0
 20
1034.531857
 11
619.891859
 21
1034.531857
  0
LINE
  8
DATA
  6
CONTINUOUS
 62
     7
 10
625.0
 20
1033.531851
 11
619.891859
 21
1033.531851
  0
LINE
  8
DATA
  6
CONTINUOUS
 62
     7
 10
625.0
 20
1035.000066
 11
619.891859
 21
1035.000066
  0
LINE
  8
DATA
  6
CONTINUOUS
 62
     7
 10
510.433799
 20
1036.210899
 11
496.433703
 21
1013.21075
  0
LINE
  8
DATA
  6
CONTINUOUS
 62
     7
 10
513.959356
 20
1036.210899
 11
499.959274
 21
1013.21075
  0
LINE
  8
DATA
  6
CONTINUOUS
 62
     7
 10
484.333172
 20
1035.97375
 11
474.433733
 21
1028.902626
  0
LINE
  8
DATA
  6
CONTINUOUS
 62
     7
 10
481.504858
 20
1038.802064
 11
474.433733
 21
1028.902626
  0
LINE
  8
DATA
  6
CONTINUOUS
 62
     7
 10
474.433733
 20
1028.902626
 11
488.231795
 21
1042.700688
  0
LINE
  8
DATA
  6
CONTINUOUS
 62
     7
 10
509.510841
 20
1028.902626
 11
555.22243
 21
1028.902626
  0
LINE
  8
DATA
  6
CONTINUOUS
 62
     7
 10
504.759822
 20
1021.097374
 11
555.22243
 21
1021.097374
  0
LINE
  8
DATA
  6
CONTINUOUS
 62
     7
 10
625.0
 20
735.000066
 11
619.891859
 21
735.000066
  0
LINE
  8
DATA
  6
CONTINUOUS
 62
     7
 10
625.0
 20
733.531851
 11
619.891859
 21
733.531851
  0
LINE
  8
DATA
  6
CONTINUOUS
 62
     7
 10
625.0
 20
734.531857
 11
619.891859
 21
734.531857
  0
LINE
  8
DATA
  6
CONTINUOUS
 62
     7
 10
625.0
 20
727.208343
 11
619.891859
 21
727.208343
  0
LINE
  8
DATA
  6
CONTINUOUS
 62
     7
 10
625.0
 20
726.208338
 11
619.891859
 21
726.208338
  0
LINE
  8
DATA
  6
CONTINUOUS
 62
     7
 10
625.0
 20
718.381894
 11
619.891859
 21
718.381894
  0
LINE
  8
DATA
  6
CONTINUOUS
 62
     7
 10
625.0
 20
719.3819
 11
619.891859
 21
719.3819
  0
LINE
  8
DATA
  6
CONTINUOUS
 62
     7
 10
579.999721
 20
736.25007
 11
599.999839
 21
738.500079
  0
LINE
  8
DATA
  6
CONTINUOUS
 62
     7
 10
569.679055
 20
737.500074
 11
575.67909
 21
737.500074
  0
ARC
  8
DATA
  6
CONTINUOUS
 62
     7
 10
575.67909
 20
736.500068
 40
1.000006
 50
0.0
 51
90.0
  0
ARC
  8
DATA
  6
CONTINUOUS
 62
     7
 10
569.679055
 20
736.500068
 40
1.000006
 50
90.0
 51
180.0
  0
LINE
  8
DATA
  6
CONTINUOUS
 62
     7
 10
599.999839
 20
738.500079
 11
605.391767
 21
738.500079
  0
ARC
  8
DATA
  6
CONTINUOUS
 62
     7
 10
572.679072
 20
734.557567
 40
4.000024
 50
212.630765
 51
327.369235
  0
LINE
  8
DATA
  6
CONTINUOUS
 62
     7
 10
576.679096
 20
732.400665
 11
576.047753
 21
732.400665
  0
LINE
  8
DATA
  6
CONTINUOUS
 62
     7
 10
576.679096
 20
731.500038
 11
579.999721
 21
731.500038
  0
LINE
  8
DATA
  6
CONTINUOUS
 62
     7
 10
568.679049
 20
732.400665
 11
569.310405
 21
732.400665
  0
LINE
  8
DATA
  6
CONTINUOUS
 62
     7
 10
555.22243
 20
731.500038
 11
568.679049
 21
731.500038
  0
LINE
  8
DATA
  6
CONTINUOUS
 62
     7
 10
576.679096
 20
718.499962
 11
579.999721
 21
718.499962
  0
LINE
  8
DATA
  6
CONTINUOUS
 62
     7
 10
576.679096
 20
717.599335
 11
576.047753
 21
717.599335
  0
ARC
  8
DATA
  6
CONTINUOUS
 62
     7
 10
572.679072
 20
715.442433
 40
4.000024
 50
32.630765
 51
147.369235
  0
LINE
  8
DATA
  6
CONTINUOUS
 62
     7
 10
568.679049
 20
717.599335
 11
569.310405
 21
717.599335
  0
LINE
  8
DATA
  6
CONTINUOUS
 62
     7
 10
555.22243
 20
718.499962
 11
568.679049
 21
718.499962
  0
LINE
  8
DATA
  6
CONTINUOUS
 62
     7
 10
555.22243
 20
718.499962
 11
555.22243
 21
731.500038
  0
CIRCLE
  8
DATA
  6
CONTINUOUS
 62
     7
 10
572.679072
 20
733.665575
 40
2.464995
  0
CIRCLE
  8
DATA
  6
CONTINUOUS
 62
     7
 10
572.679072
 20
733.665575
 40
1.500016
  0
LINE
  8
DATA
  6
CONTINUOUS
 62
     7
 10
605.391767
 20
737.08341
 11
619.891859
 21
737.08341
  0
LINE
  8
DATA
  6
CONTINUOUS
 62
     7
 10
605.391767
 20
738.291741
 11
619.891859
 21
738.291741
  0
LINE
  8
DATA
  6
CONTINUOUS
 62
     7
 10
605.391767
 20
739.500085
 11
619.891859
 21
739.500085
  0
LINE
  8
DATA
  6
CONTINUOUS
 62
     7
 10
605.391767
 20
739.500085
 11
619.891859
 21
739.500085
  0
LINE
  8
DATA
  6
CONTINUOUS
 62
     7
 10
605.391767
 20
733.458391
 11
619.891859
 21
733.458391
  0
LINE
  8
DATA
  6
CONTINUOUS
 62
     7
 10
605.391767
 20
734.666721
 11
619.891859
 21
734.666721
  0
LINE
  8
DATA
  6
CONTINUOUS
 62
     7
 10
605.391767
 20
735.875066
 11
619.891859
 21
735.875066
  0
LINE
  8
DATA
  6
CONTINUOUS
 62
     7
 10
605.391767
 20
725.000007
 11
619.891859
 21
725.000007
  0
LINE
  8
DATA
  6
CONTINUOUS
 62
     7
 10
605.391767
 20
722.583318
 11
619.891859
 21
722.583318
  0
LINE
  8
DATA
  6
CONTINUOUS
 62
     7
 10
605.391767
 20
721.374973
 11
619.891859
 21
721.374973
  0
LINE
  8
DATA
  6
CONTINUOUS
 62
     7
 10
605.391767
 20
723.791662
 11
619.891859
 21
723.791662
  0
LINE
  8
DATA
  6
CONTINUOUS
 62
     7
 10
605.391767
 20
726.208338
 11
619.891859
 21
726.208338
  0
LINE
  8
DATA
  6
CONTINUOUS
 62
     7
 10
605.391767
 20
731.041702
 11
619.891859
 21
731.041702
  0
LINE
  8
DATA
  6
CONTINUOUS
 62
     7
 10
605.391767
 20
732.250046
 11
619.891859
 21
732.250046
  0
LINE
  8
DATA
  6
CONTINUOUS
 62
     7
 10
605.391767
 20
728.625027
 11
619.891859
 21
728.625027
  0
LINE
  8
DATA
  6
CONTINUOUS
 62
     7
 10
605.391767
 20
729.833357
 11
619.891859
 21
729.833357
  0
LINE
  8
DATA
  6
CONTINUOUS
 62
     7
 10
605.391767
 20
727.416682
 11
619.891859
 21
727.416682
  0
LINE
  8
DATA
  6
CONTINUOUS
 62
     7
 10
605.391767
 20
717.749954
 11
619.891859
 21
717.749954
  0
LINE
  8
DATA
  6
CONTINUOUS
 62
     7
 10
605.391767
 20
716.541623
 11
619.891859
 21
716.541623
  0
LINE
  8
DATA
  6
CONTINUOUS
 62
     7
 10
605.391767
 20
720.166643
 11
619.891859
 21
720.166643
  0
LINE
  8
DATA
  6
CONTINUOUS
 62
     7
 10
605.391767
 20
718.958298
 11
619.891859
 21
718.958298
  0
LINE
  8
DATA
  6
CONTINUOUS
 62
     7
 10
625.0
 20
714.999934
 11
619.891859
 21
714.999934
  0
LINE
  8
DATA
  6
CONTINUOUS
 62
     7
 10
579.999721
 20
713.74993
 11
599.999839
 21
711.499921
  0
LINE
  8
DATA
  6
CONTINUOUS
 62
     7
 10
575.67909
 20
712.499926
 11
569.679055
 21
712.499926
  0
ARC
  8
DATA
  6
CONTINUOUS
 62
     7
 10
575.67909
 20
713.499932
 40
1.000006
 50
270.0
 51
0.0
  0
ARC
  8
DATA
  6
CONTINUOUS
 62
     7
 10
569.679055
 20
713.499932
 40
1.000006
 50
180.0
 51
270.0
  0
LINE
  8
DATA
  6
CONTINUOUS
 62
     7
 10
599.999839
 20
711.499921
 11
605.391767
 21
711.499921
  0
LINE
  8
DATA
  6
CONTINUOUS
 62
     7
 10
605.391767
 20
714.124934
 11
619.891859
 21
714.124934
  0
LINE
  8
DATA
  6
CONTINUOUS
 62
     7
 10
605.391767
 20
715.333279
 11
619.891859
 21
715.333279
  0
LINE
  8
DATA
  6
CONTINUOUS
 62
     7
 10
605.391767
 20
710.499915
 11
619.891859
 21
710.499915
  0
LINE
  8
DATA
  6
CONTINUOUS
 62
     7
 10
605.391767
 20
711.708259
 11
619.891859
 21
711.708259
  0
LINE
  8
DATA
  6
CONTINUOUS
 62
     7
 10
605.391767
 20
712.91659
 11
619.891859
 21
712.91659
  0
LINE
  8
DATA
  6
CONTINUOUS
 62
     7
 10
619.891859
 20
710.499915
 11
619.891859
 21
739.500085
  0
LINE
  8
DATA
  6
CONTINUOUS
 62
     7
 10
625.0
 20
714.999934
 11
625.0
 21
735.000066
  0
CIRCLE
  8
DATA
  6
CONTINUOUS
 62
     7
 10
572.679072
 20
716.334425
 40
2.464995
  0
CIRCLE
  8
DATA
  6
CONTINUOUS
 62
     7
 10
572.679072
 20
716.334425
 40
1.500016
  0
LINE
  8
DATA
  6
CONTINUOUS
 62
     7
 10
605.391767
 20
710.499915
 11
605.391767
 21
739.500085
  0
LINE
  8
DATA
  6
CONTINUOUS
 62
     7
 10
579.999721
 20
713.74993
 11
579.999721
 21
736.25007
  0
LINE
  8
DATA
  6
CONTINUOUS
 62
     7
 10
576.679096
 20
713.499932
 11
576.679096
 21
736.500068
  0
LINE
  8
DATA
  6
CONTINUOUS
 62
     7
 10
568.679049
 20
713.499932
 11
568.679049
 21
736.500068
  0
LINE
  8
DATA
  6
CONTINUOUS
 62
     7
 10
474.433733
 20
728.902626
 11
488.231795
 21
742.700688
  0
LINE
  8
DATA
  6
CONTINUOUS
 62
     7
 10
481.504858
 20
738.802064
 11
474.433733
 21
728.902626
  0
LINE
  8
DATA
  6
CONTINUOUS
 62
     7
 10
484.333172
 20
735.97375
 11
474.433733
 21
728.902626
  0
LINE
  8
DATA
  6
CONTINUOUS
 62
     7
 10
513.959356
 20
736.210899
 11
499.959274
 21
713.21075
  0
LINE
  8
DATA
  6
CONTINUOUS
 62
     7
 10
510.433799
 20
736.210899
 11
496.433703
 21
713.21075
  0
TEXT
  8
DATA
  6
CONTINUOUS
 62
     7
 10
493.231795
 20
747.700688
 40
18.75
  1
DCコード長さ約3m
  7
TTF_DEFAULT
  0
LINE
  8
DATA
  6
CONTINUOUS
 62
     7
 10
504.759822
 20
721.097374
 11
555.22243
 21
721.097374
  0
LINE
  8
DATA
  6
CONTINUOUS
 62
     7
 10
509.510841
 20
728.902626
 11
555.22243
 21
728.902626
  0
LINE
  8
DIMENSIONS
  6
CONTINUOUS
 62
     7
 10
585.001117
 20
883.000444
 11
585.001117
 21
962.5
  0
LINE
  8
DIMENSIONS
  6
CONTINUOUS
 62
     7
 10
565.001117
 20
946.6668
 11
585.001117
 21
950.0
  0
LINE
  8
DIMENSIONS
  6
CONTINUOUS
 62
     7
 10
565.001117
 20
953.3332
 11
585.001117
 21
950.0
  0
TEXT
  8
DIMENSIONS
  6
CONTINUOUS
 62
     7
 10
470.748027
 20
962.5
 40
25.0
  1
185
  7
TTF_DEFAULT
  0
LINE
  8
DATA
  6
CONTINUOUS
 62
     7
 10
585.001117
 20
1270.001028
 11
585.001117
 21
1100.0
  0
LINE
  8
DATA
  6
CONTINUOUS
 62
     7
 10
549.582106
 20
1092.001217
 11
569.582224
 21
1092.001217
  0
LINE
  8
DATA
  6
CONTINUOUS
 62
     7
 10
547.082098
 20
1100.0
 11
547.082098
 21
1096.999982
  0
LINE
  8
DATA
  6
CONTINUOUS
 62
     7
 10
572.082245
 20
1096.999982
 11
572.082245
 21
1100.0
  0
LINE
  8
DATA
  6
CONTINUOUS
 62
     7
 10
569.582224
 20
1092.001217
 11
569.582224
 21
1096.999982
  0
LINE
  8
DATA
  6
CONTINUOUS
 62
     7
 10
549.582106
 20
1092.001217
 11
549.582106
 21
1096.999982
  0
LINE
  8
DATA
  6
CONTINUOUS
 62
     7
 10
574.001052
 20
1100.0
 11
574.001052
 21
1096.999982
  0
LINE
  8
DATA
  6
CONTINUOUS
 62
     7
 10
559.255508
 20
1260.891877
 11
559.255508
 21
1262.458136
  0
LINE
  8
DATA
  6
CONTINUOUS
 62
     7
 10
558.746419
 20
1260.891877
 11
558.746419
 21
1262.458136
  0
CIRCLE
  8
DATA
  6
CONTINUOUS
 62
     7
 10
559.000964
 20
1260.000956
 40
2.987573
  0
CIRCLE
  8
DATA
  6
CONTINUOUS
 62
     7
 10
559.000964
 20
1260.000956
 40
3.500028
  0
ARC
  8
DATA
  6
CONTINUOUS
 62
     7
 10
558.110056
 20
1259.110034
 40
0.636362
 50
0.0
 51
90.0
  0
LINE
  8
DATA
  6
CONTINUOUS
 62
     7
 10
556.543797
 20
1259.746411
 11
558.110056
 21
1259.746411
  0
LINE
  8
DATA
  6
CONTINUOUS
 62
     7
 10
558.746419
 20
1257.543775
 11
558.746419
 21
1259.110034
  0
ARC
  8
DATA
  6
CONTINUOUS
 62
     7
 10
559.891885
 20
1259.110034
 40
0.636362
 50
90.0
 51
180.0
  0
LINE
  8
DATA
  6
CONTINUOUS
 62
     7
 10
559.891885
 20
1259.746411
 11
561.458144
 21
1259.746411
  0
LINE
  8
DATA
  6
CONTINUOUS
 62
     7
 10
559.255508
 20
1257.543775
 11
559.255508
 21
1259.110034
  0
CIRCLE
  8
DATA
  6
CONTINUOUS
 62
     7
 10
559.891885
 20
1258.473672
 40
0.636362
  0
ARC
  8
DATA
  6
CONTINUOUS
 62
     7
 10
559.891885
 20
1260.891877
 40
0.636362
 50
180.0
 51
270.0
  0
LINE
  8
DATA
  6
CONTINUOUS
 62
     7
 10
559.891885
 20
1260.2555
 11
561.458144
 21
1260.2555
  0
ARC
  8
DATA
  6
CONTINUOUS
 62
     7
 10
558.110056
 20
1260.891877
 40
0.636362
 50
270.0
 51
0.0
  0
LINE
  8
DATA
  6
CONTINUOUS
 62
     7
 10
556.543797
 20
1260.2555
 11
558.110056
 21
1260.2555
  0
ARC
  8
DATA
  6
CONTINUOUS
 62
     7
 10
559.000964
 20
1260.000956
 40
2.470321
 50
174.085662
 51
185.914338
  0
ARC
  8
DATA
  6
CONTINUOUS
 62
     7
 10
559.000964
 20
1260.000956
 40
2.470321
 50
354.085662
 51
5.914338
  0
ARC
  8
DATA
  6
CONTINUOUS
 62
     7
 10
559.000964
 20
1260.000956
 40
2.470321
 50
264.085662
 51
275.914338
  0
ARC
  8
DATA
  6
CONTINUOUS
 62
     7
 10
559.000964
 20
1260.000956
 40
2.470321
 50
84.085662
 51
95.914338
  0
LINE
  8
DATA
  6
CONTINUOUS
 62
     7
 10
502.273347
 20
1302.001203
 11
504.273359
 21
1302.001203
  0
LINE
  8
DATA
  6
CONTINUOUS
 62
     7
 10
490.909652
 20
1302.001203
 11
492.909664
 21
1302.001203
  0
LINE
  8
DATA
  6
CONTINUOUS
 62
     7
 10
468.182236
 20
1302.001203
 11
470.182248
 21
1302.001203
  0
LINE
  8
DATA
  6
CONTINUOUS
 62
     7
 10
479.545944
 20
1302.001203
 11
481.545956
 21
1302.001203
  0
LINE
  8
DATA
  6
CONTINUOUS
 62
     7
 10
513.637055
 20
1302.001203
 11
515.637067
 21
1302.001203
  0
LINE
  8
DATA
  6
CONTINUOUS
 62
     7
 10
525.000763
 20
1302.001203
 11
527.000775
 21
1302.001203
  0
CIRCLE
  8
DATA
  6
CONTINUOUS
 62
     7
 10
535.000822
 20
1110.000045
 40
3.500028
  0
CIRCLE
  8
DATA
  6
CONTINUOUS
 62
     7
 10
535.000822
 20
1110.000045
 40
2.987573
  0
LINE
  8
DATA
  6
CONTINUOUS
 62
     7
 10
534.746277
 20
1107.542878
 11
534.746277
 21
1109.109138
  0
LINE
  8
DATA
  6
CONTINUOUS
 62
     7
 10
535.255367
 20
1107.542878
 11
535.255367
 21
1109.109138
  0
CIRCLE
  8
DATA
  6
CONTINUOUS
 62
     7
 10
535.89173
 20
1108.472775
 40
0.636362
  0
ARC
  8
DATA
  6
CONTINUOUS
 62
     7
 10
535.000822
 20
1110.000045
 40
2.470321
 50
264.085662
 51
275.914338
  0
LINE
  8
DATA
  6
CONTINUOUS
 62
     7
 10
526.000769
 20
1100.0
 11
526.000769
 21
1096.999982
  0
ARC
  8
DATA
  6
CONTINUOUS
 62
     7
 10
534.109901
 20
1109.109138
 40
0.636362
 50
0.0
 51
90.0
  0
ARC
  8
DATA
  6
CONTINUOUS
 62
     7
 10
535.89173
 20
1109.109138
 40
0.636362
 50
90.0
 51
180.0
  0
ARC
  8
DATA
  6
CONTINUOUS
 62
     7
 10
535.000822
 20
1110.000045
 40
2.470321
 50
354.085662
 51
5.914338
  0
LINE
  8
DATA
  6
CONTINUOUS
 62
     7
 10
532.543642
 20
1109.7455
 11
534.109901
 21
1109.7455
  0
ARC
  8
DATA
  6
CONTINUOUS
 62
     7
 10
535.89173
 20
1110.890966
 40
0.636362
 50
180.0
 51
270.0
  0
LINE
  8
DATA
  6
CONTINUOUS
 62
     7
 10
535.255367
 20
1110.890966
 11
535.255367
 21
1112.457225
  0
ARC
  8
DATA
  6
CONTINUOUS
 62
     7
 10
534.109901
 20
1110.890966
 40
0.636362
 50
270.0
 51
0.0
  0
LINE
  8
DATA
  6
CONTINUOUS
 62
     7
 10
534.746277
 20
1110.890966
 11
534.746277
 21
1112.457225
  0
LINE
  8
DATA
  6
CONTINUOUS
 62
     7
 10
532.543642
 20
1110.254604
 11
534.109901
 21
1110.254604
  0
ARC
  8
DATA
  6
CONTINUOUS
 62
     7
 10
535.000822
 20
1110.000045
 40
2.470321
 50
174.085662
 51
185.914338
  0
ARC
  8
DATA
  6
CONTINUOUS
 62
     7
 10
535.000822
 20
1110.000045
 40
2.470321
 50
84.085662
 51
95.914338
  0
LINE
  8
DATA
  6
CONTINUOUS
 62
     7
 10
535.89173
 20
1109.7455
 11
537.458003
 21
1109.7455
  0
LINE
  8
DATA
  6
CONTINUOUS
 62
     7
 10
535.89173
 20
1110.254604
 11
537.458003
 21
1110.254604
  0
LINE
  8
DATA
  6
CONTINUOUS
 62
     7
 10
492.909664
 20
1277.001056
 11
502.273347
 21
1277.001056
  0
LINE
  8
DATA
  6
CONTINUOUS
 62
     7
 10
470.182248
 20
1277.001056
 11
479.545944
 21
1277.001056
  0
LINE
  8
DATA
  6
CONTINUOUS
 62
     7
 10
481.545956
 20
1277.001056
 11
490.909652
 21
1277.001056
  0
LINE
  8
DATA
  6
CONTINUOUS
 62
     7
 10
515.637067
 20
1277.001056
 11
525.000763
 21
1277.001056
  0
LINE
  8
DATA
  6
CONTINUOUS
 62
     7
 10
504.273359
 20
1277.001056
 11
513.637055
 21
1277.001056
  0
LINE
  8
DATA
  6
CONTINUOUS
 62
     7
 10
492.909664
 20
1277.001056
 11
492.909664
 21
1302.001203
  0
LINE
  8
DATA
  6
CONTINUOUS
 62
     7
 10
490.909652
 20
1277.001056
 11
490.909652
 21
1302.001203
  0
LINE
  8
DATA
  6
CONTINUOUS
 62
     7
 10
502.273347
 20
1277.001056
 11
502.273347
 21
1302.001203
  0
LINE
  8
DATA
  6
CONTINUOUS
 62
     7
 10
470.182248
 20
1277.001056
 11
470.182248
 21
1302.001203
  0
LINE
  8
DATA
  6
CONTINUOUS
 62
     7
 10
481.545956
 20
1277.001056
 11
481.545956
 21
1302.001203
  0
LINE
  8
DATA
  6
CONTINUOUS
 62
     7
 10
479.545944
 20
1277.001056
 11
479.545944
 21
1302.001203
  0
LINE
  8
DATA
  6
CONTINUOUS
 62
     7
 10
468.182236
 20
1277.001056
 11
468.182236
 21
1302.001203
  0
LINE
  8
DATA
  6
CONTINUOUS
 62
     7
 10
527.000775
 20
1270.001014
 11
527.000775
 21
1302.001203
  0
LINE
  8
DATA
  6
CONTINUOUS
 62
     7
 10
515.637067
 20
1277.001056
 11
515.637067
 21
1302.001203
  0
LINE
  8
DATA
  6
CONTINUOUS
 62
     7
 10
513.637055
 20
1277.001056
 11
513.637055
 21
1302.001203
  0
LINE
  8
DATA
  6
CONTINUOUS
 62
     7
 10
504.273359
 20
1277.001056
 11
504.273359
 21
1302.001203
  0
LINE
  8
DATA
  6
CONTINUOUS
 62
     7
 10
525.000763
 20
1277.001056
 11
525.000763
 21
1302.001203
  0
LINE
  8
DATA
  6
CONTINUOUS
 62
     7
 10
526.000769
 20
1096.999982
 11
574.001052
 21
1096.999982
  0
TEXT
  8
DATA
  6
CONTINUOUS
 62
     7
 10
493.231795
 20
1047.700688
 40
18.75
  1
DCコード長さ約3m
  7
TTF_DEFAULT
  0
LINE
  8
DIMENSIONS
  6
CONTINUOUS
 62
     7
 10
527.000775
 20
1312.001203
 11
527.000775
 21
1362.5
  0
LINE
  8
DIMENSIONS
  6
CONTINUOUS
 62
     7
 10
507.000775
 20
1346.6668
 11
527.000775
 21
1350.0
  0
LINE
  8
DIMENSIONS
  6
CONTINUOUS
 62
     7
 10
507.000775
 20
1353.3332
 11
527.000775
 21
1350.0
  0
LINE
  8
DIMENSIONS
  6
CONTINUOUS
 62
     7
 10
585.001117
 20
1280.001028
 11
585.001117
 21
1412.5
  0
LINE
  8
DIMENSIONS
  6
CONTINUOUS
 62
     7
 10
565.001117
 20
1396.6668
 11
585.001117
 21
1400.0
  0
LINE
  8
DIMENSIONS
  6
CONTINUOUS
 62
     7
 10
565.001117
 20
1403.3332
 11
585.001117
 21
1400.0
  0
LINE
  8
DATA
  6
CONTINUOUS
 62
     7
 10
852.001217
 20
880.000485
 11
852.001217
 21
800.0
  0
LINE
  8
DATA
  6
CONTINUOUS
 62
     7
 10
760.000661
 20
867.000408
 11
800.000911
 21
867.000408
  0
LINE
  8
DATA
  6
CONTINUOUS
 62
     7
 10
760.000661
 20
870.000426
 11
800.000911
 21
870.000426
  0
LINE
  8
DATA
  6
CONTINUOUS
 62
     7
 10
760.000661
 20
870.000426
 11
760.000661
 21
867.000408
  0
LINE
  8
DATA
  6
CONTINUOUS
 62
     7
 10
800.000911
 20
870.000426
 11
800.000911
 21
867.000408
  0
LINE
  8
DATA
  6
CONTINUOUS
 62
     7
 10
760.000661
 20
853.286046
 11
800.000911
 21
853.286046
  0
LINE
  8
DATA
  6
CONTINUOUS
 62
     7
 10
760.000661
 20
856.286063
 11
800.000911
 21
856.286063
  0
LINE
  8
DATA
  6
CONTINUOUS
 62
     7
 10
760.000661
 20
863.143245
 11
800.000911
 21
863.143245
  0
LINE
  8
DATA
  6
CONTINUOUS
 62
     7
 10
760.000661
 20
860.143227
 11
800.000911
 21
860.143227
  0
LINE
  8
DATA
  6
CONTINUOUS
 62
     7
 10
760.000661
 20
856.286063
 11
760.000661
 21
853.286046
  0
LINE
  8
DATA
  6
CONTINUOUS
 62
     7
 10
760.000661
 20
863.143245
 11
760.000661
 21
860.143227
  0
LINE
  8
DATA
  6
CONTINUOUS
 62
     7
 10
800.000911
 20
856.286063
 11
800.000911
 21
853.286046
  0
LINE
  8
DATA
  6
CONTINUOUS
 62
     7
 10
800.000911
 20
863.143245
 11
800.000911
 21
860.143227
  0
LINE
  8
DATA
  6
CONTINUOUS
 62
     7
 10
760.000661
 20
828.857325
 11
800.000911
 21
828.857325
  0
LINE
  8
DATA
  6
CONTINUOUS
 62
     7
 10
760.000661
 20
832.714488
 11
800.000911
 21
832.714488
  0
LINE
  8
DATA
  6
CONTINUOUS
 62
     7
 10
760.000661
 20
825.857307
 11
800.000911
 21
825.857307
  0
LINE
  8
DATA
  6
CONTINUOUS
 62
     7
 10
760.000661
 20
835.714506
 11
800.000911
 21
835.714506
  0
LINE
  8
DATA
  6
CONTINUOUS
 62
     7
 10
760.000661
 20
839.571669
 11
800.000911
 21
839.571669
  0
LINE
  8
DATA
  6
CONTINUOUS
 62
     7
 10
760.000661
 20
842.571687
 11
800.000911
 21
842.571687
  0
LINE
  8
DATA
  6
CONTINUOUS
 62
     7
 10
760.000661
 20
846.428851
 11
800.000911
 21
846.428851
  0
LINE
  8
DATA
  6
CONTINUOUS
 62
     7
 10
760.000661
 20
849.428868
 11
800.000911
 21
849.428868
  0
LINE
  8
DATA
  6
CONTINUOUS
 62
     7
 10
760.000661
 20
835.714506
 11
760.000661
 21
832.714488
  0
LINE
  8
DATA
  6
CONTINUOUS
 62
     7
 10
760.000661
 20
828.857325
 11
760.000661
 21
825.857307
  0
LINE
  8
DATA
  6
CONTINUOUS
 62
     7
 10
760.000661
 20
849.428868
 11
760.000661
 21
846.428851
  0
LINE
  8
DATA
  6
CONTINUOUS
 62
     7
 10
760.000661
 20
842.571687
 11
760.000661
 21
839.571669
  0
LINE
  8
DATA
  6
CONTINUOUS
 62
     7
 10
800.000911
 20
835.714506
 11
800.000911
 21
832.714488
  0
LINE
  8
DATA
  6
CONTINUOUS
 62
     7
 10
800.000911
 20
828.857325
 11
800.000911
 21
825.857307
  0
LINE
  8
DATA
  6
CONTINUOUS
 62
     7
 10
800.000911
 20
849.428868
 11
800.000911
 21
846.428851
  0
LINE
  8
DATA
  6
CONTINUOUS
 62
     7
 10
800.000911
 20
842.571687
 11
800.000911
 21
839.571669
  0
LINE
  8
DATA
  6
CONTINUOUS
 62
     7
 10
760.000661
 20
822.000143
 11
800.000911
 21
822.000143
  0
LINE
  8
DATA
  6
CONTINUOUS
 62
     7
 10
760.000661
 20
819.000112
 11
800.000911
 21
819.000112
  0
CIRCLE
  8
DATA
  6
CONTINUOUS
 62
     7
 10
784.000802
 20
810.000059
 40
3.500028
  0
CIRCLE
  8
DATA
  6
CONTINUOUS
 62
     7
 10
784.000802
 20
810.000059
 40
2.987573
  0
ARC
  8
DATA
  6
CONTINUOUS
 62
     7
 10
783.109895
 20
809.109138
 40
0.636362
 50
0.0
 51
90.0
  0
ARC
  8
DATA
  6
CONTINUOUS
 62
     7
 10
784.891724
 20
809.109138
 40
0.636362
 50
90.0
 51
180.0
  0
LINE
  8
DATA
  6
CONTINUOUS
 62
     7
 10
783.746258
 20
809.109138
 11
783.746258
 21
807.542878
  0
LINE
  8
DATA
  6
CONTINUOUS
 62
     7
 10
784.255347
 20
809.109138
 11
784.255347
 21
807.542878
  0
ARC
  8
DATA
  6
CONTINUOUS
 62
     7
 10
784.000802
 20
810.000059
 40
2.470321
 50
264.085662
 51
275.914338
  0
LINE
  8
DATA
  6
CONTINUOUS
 62
     7
 10
760.000661
 20
822.000143
 11
760.000661
 21
819.000112
  0
LINE
  8
DATA
  6
CONTINUOUS
 62
     7
 10
786.457983
 20
810.254604
 11
784.891724
 21
810.254604
  0
LINE
  8
DATA
  6
CONTINUOUS
 62
     7
 10
786.457983
 20
809.745514
 11
784.891724
 21
809.745514
  0
ARC
  8
DATA
  6
CONTINUOUS
 62
     7
 10
784.000802
 20
810.000059
 40
2.470321
 50
354.085662
 51
5.914338
  0
ARC
  8
DATA
  6
CONTINUOUS
 62
     7
 10
784.891724
 20
810.890966
 40
0.636362
 50
180.0
 51
270.0
  0
LINE
  8
DATA
  6
CONTINUOUS
 62
     7
 10
784.255347
 20
812.457239
 11
784.255347
 21
810.890966
  0
ARC
  8
DATA
  6
CONTINUOUS
 62
     7
 10
783.109895
 20
810.890966
 40
0.636362
 50
270.0
 51
0.0
  0
LINE
  8
DATA
  6
CONTINUOUS
 62
     7
 10
783.109895
 20
810.254604
 11
781.543636
 21
810.254604
  0
LINE
  8
DATA
  6
CONTINUOUS
 62
     7
 10
783.746258
 20
812.457239
 11
783.746258
 21
810.890966
  0
CIRCLE
  8
DATA
  6
CONTINUOUS
 62
     7
 10
783.109895
 20
811.527342
 40
0.636362
  0
LINE
  8
DATA
  6
CONTINUOUS
 62
     7
 10
783.109895
 20
809.745514
 11
781.543636
 21
809.745514
  0
ARC
  8
DATA
  6
CONTINUOUS
 62
     7
 10
784.000802
 20
810.000059
 40
2.470321
 50
174.085662
 51
185.914338
  0
ARC
  8
DATA
  6
CONTINUOUS
 62
     7
 10
784.000802
 20
810.000059
 40
2.470321
 50
84.085662
 51
95.914338
  0
LINE
  8
DATA
  6
CONTINUOUS
 62
     7
 10
800.000911
 20
822.000143
 11
800.000911
 21
819.000112
  0
ARC
  8
DATA
  6
CONTINUOUS
 62
     7
 10
800.000904
 20
804.725028
 40
9.725057
 50
209.06891
 51
330.93109
  0
LINE
  8
DATA
  6
CONTINUOUS
 62
     7
 10
820.001028
 20
880.000485
 11
820.001028
 21
800.0
  0
LINE
  8
DATA
  6
CONTINUOUS
 62
     7
 10
820.001028
 20
800.0
 11
852.001217
 21
800.0
  0
LINE
  8
DATA
  6
CONTINUOUS
 62
     7
 10
400.0
 20
1630.001583
 11
585.003661
 21
1630.001583
  0
LINE
  8
DATA
  6
CONTINUOUS
 62
     7
 10
578.003523
 20
1550.0
 11
407.000139
 21
1550.0
  0
LINE
  8
DATA
  6
CONTINUOUS
 62
     7
 10
578.003523
 20
1552.00004
 11
407.000139
 21
1552.00004
  0
LINE
  8
DIMENSIONS
  6
CONTINUOUS
 62
     7
 10
400.0
 20
1500.0
 11
527.002513
 21
1500.0
  0
TEXT
  8
DIMENSIONS
  6
CONTINUOUS
 62
     7
 10
443.916984
 20
1512.5
 40
25.0
  1
127
  7
TTF_DEFAULT
  0
ARC
  8
DATA
  6
CONTINUOUS
 62
     7
 10
430.276359
 20
1618.044667
 40
0.636373
 50
90.0
 51
180.0
  0
LINE
  8
DATA
  6
CONTINUOUS
 62
     7
 10
431.84264
 20
1618.681039
 11
430.276359
 21
1618.681039
  0
LINE
  8
DATA
  6
CONTINUOUS
 62
     7
 10
429.639987
 20
1616.478386
 11
429.639987
 21
1618.044667
  0
ARC
  8
DATA
  6
CONTINUOUS
 62
     7
 10
428.494504
 20
1618.044667
 40
0.636373
 50
0.0
 51
90.0
  0
LINE
  8
DATA
  6
CONTINUOUS
 62
     7
 10
429.130886
 20
1616.478386
 11
429.130886
 21
1618.044667
  0
ARC
  8
DATA
  6
CONTINUOUS
 62
     7
 10
428.494504
 20
1619.826522
 40
0.636373
 50
270.0
 51
0.0
  0
LINE
  8
DATA
  6
CONTINUOUS
 62
     7
 10
429.130886
 20
1619.826522
 11
429.130886
 21
1621.392803
  0
ARC
  8
DATA
  6
CONTINUOUS
 62
     7
 10
430.276359
 20
1619.826522
 40
0.636373
 50
180.0
 51
270.0
  0
LINE
  8
DATA
  6
CONTINUOUS
 62
     7
 10
429.639987
 20
1619.826522
 11
429.639987
 21
1621.392803
  0
LINE
  8
DATA
  6
CONTINUOUS
 62
     7
 10
431.84264
 20
1619.190139
 11
430.276359
 21
1619.190139
  0
ARC
  8
DATA
  6
CONTINUOUS
 62
     7
 10
429.385432
 20
1618.935594
 40
2.470359
 50
354.08553
 51
5.91447
  0
ARC
  8
DATA
  6
CONTINUOUS
 62
     7
 10
429.385432
 20
1618.935594
 40
2.470359
 50
84.08553
 51
95.91447
  0
ARC
  8
DATA
  6
CONTINUOUS
 62
     7
 10
429.385432
 20
1618.935594
 40
2.470359
 50
264.08553
 51
275.91447
  0
ARC
  8
DATA
  6
CONTINUOUS
 62
     7
 10
429.385432
 20
1618.935594
 40
2.470359
 50
174.08553
 51
185.91447
  0
CIRCLE
  8
DATA
  6
CONTINUOUS
 62
     7
 10
428.494504
 20
1617.408294
 40
0.636373
  0
ARC
  8
DATA
  6
CONTINUOUS
 62
     7
 10
420.000111
 20
1625.276555
 40
9.725057
 50
29.06891
 51
150.93109
  0
LINE
  8
DATA
  6
CONTINUOUS
 62
     7
 10
428.494504
 20
1618.681039
 11
426.928223
 21
1618.681039
  0
LINE
  8
DATA
  6
CONTINUOUS
 62
     7
 10
428.494504
 20
1619.190139
 11
426.928223
 21
1619.190139
  0
CIRCLE
  8
DATA
  6
CONTINUOUS
 62
     7
 10
429.385432
 20
1618.935594
 40
2.987609
  0
CIRCLE
  8
DATA
  6
CONTINUOUS
 62
     7
 10
429.385432
 20
1618.935594
 40
3.500069
  0
ARC
  8
DATA
  6
CONTINUOUS
 62
     7
 10
430.276359
 20
1563.956956
 40
0.636373
 50
180.0
 51
270.0
  0
LINE
  8
DATA
  6
CONTINUOUS
 62
     7
 10
431.84264
 20
1563.320584
 11
430.276359
 21
1563.320584
  0
LINE
  8
DATA
  6
CONTINUOUS
 62
     7
 10
429.639987
 20
1565.523237
 11
429.639987
 21
1563.956956
  0
ARC
  8
DATA
  6
CONTINUOUS
 62
     7
 10
428.494504
 20
1563.956956
 40
0.636373
 50
270.0
 51
0.0
  0
LINE
  8
DATA
  6
CONTINUOUS
 62
     7
 10
429.130886
 20
1565.523237
 11
429.130886
 21
1563.956956
  0
ARC
  8
DATA
  6
CONTINUOUS
 62
     7
 10
428.494504
 20
1562.175101
 40
0.636373
 50
0.0
 51
90.0
  0
LINE
  8
DATA
  6
CONTINUOUS
 62
     7
 10
429.130886
 20
1562.175101
 11
429.130886
 21
1560.60882
  0
ARC
  8
DATA
  6
CONTINUOUS
 62
     7
 10
430.276359
 20
1562.175101
 40
0.636373
 50
90.0
 51
180.0
  0
LINE
  8
DATA
  6
CONTINUOUS
 62
     7
 10
429.639987
 20
1562.175101
 11
429.639987
 21
1560.60882
  0
LINE
  8
DATA
  6
CONTINUOUS
 62
     7
 10
431.84264
 20
1562.811484
 11
430.276359
 21
1562.811484
  0
ARC
  8
DATA
  6
CONTINUOUS
 62
     7
 10
429.385432
 20
1563.066029
 40
2.470359
 50
354.08553
 51
5.91447
  0
ARC
  8
DATA
  6
CONTINUOUS
 62
     7
 10
429.385432
 20
1563.066029
 40
2.470359
 50
264.08553
 51
275.91447
  0
ARC
  8
DATA
  6
CONTINUOUS
 62
     7
 10
429.385432
 20
1563.066029
 40
2.470359
 50
84.08553
 51
95.91447
  0
LINE
  8
DATA
  6
CONTINUOUS
 62
     7
 10
409.215762
 20
1593.078733
 11
407.649481
 21
1593.078733
  0
LINE
  8
DATA
  6
CONTINUOUS
 62
     7
 10
409.215762
 20
1592.569632
 11
407.649481
 21
1592.569632
  0
ARC
  8
DATA
  6
CONTINUOUS
 62
     7
 10
407.649481
 20
1593.715105
 40
0.636373
 50
180.0
 51
270.0
  0
LINE
  8
DATA
  6
CONTINUOUS
 62
     7
 10
407.013099
 20
1595.281386
 11
407.013099
 21
1593.715105
  0
ARC
  8
DATA
  6
CONTINUOUS
 62
     7
 10
405.867626
 20
1593.715105
 40
0.636373
 50
270.0
 51
0.0
  0
LINE
  8
DATA
  6
CONTINUOUS
 62
     7
 10
405.867626
 20
1593.078733
 11
404.301345
 21
1593.078733
  0
LINE
  8
DATA
  6
CONTINUOUS
 62
     7
 10
406.503999
 20
1595.281386
 11
406.503999
 21
1593.715105
  0
CIRCLE
  8
DATA
  6
CONTINUOUS
 62
     7
 10
405.867626
 20
1594.351488
 40
0.636373
  0
ARC
  8
DATA
  6
CONTINUOUS
 62
     7
 10
405.867626
 20
1591.93326
 40
0.636373
 50
0.0
 51
90.0
  0
LINE
  8
DATA
  6
CONTINUOUS
 62
     7
 10
405.867626
 20
1592.569632
 11
404.301345
 21
1592.569632
  0
LINE
  8
DATA
  6
CONTINUOUS
 62
     7
 10
406.503999
 20
1591.93326
 11
406.503999
 21
1590.366969
  0
ARC
  8
DATA
  6
CONTINUOUS
 62
     7
 10
407.649481
 20
1591.93326
 40
0.636373
 50
90.0
 51
180.0
  0
LINE
  8
DATA
  6
CONTINUOUS
 62
     7
 10
407.013099
 20
1591.93326
 11
407.013099
 21
1590.366969
  0
ARC
  8
DATA
  6
CONTINUOUS
 62
     7
 10
406.758554
 20
1592.824177
 40
2.470359
 50
264.08553
 51
275.91447
  0
ARC
  8
DATA
  6
CONTINUOUS
 62
     7
 10
406.758554
 20
1592.824177
 40
2.470359
 50
174.08553
 51
185.91447
  0
ARC
  8
DATA
  6
CONTINUOUS
 62
     7
 10
406.758554
 20
1592.824177
 40
2.470359
 50
84.08553
 51
95.91447
  0
ARC
  8
DATA
  6
CONTINUOUS
 62
     7
 10
406.758554
 20
1592.824177
 40
2.470359
 50
354.08553
 51
5.91447
  0
CIRCLE
  8
DATA
  6
CONTINUOUS
 62
     7
 10
406.758554
 20
1592.824177
 40
2.987609
  0
ARC
  8
DATA
  6
CONTINUOUS
 62
     7
 10
407.000139
 20
1557.000139
 40
7.000139
 50
180.0
 51
270.0
  0
ARC
  8
DATA
  6
CONTINUOUS
 62
     7
 10
407.000139
 20
1557.000139
 40
5.000099
 50
180.0
 51
270.0
  0
ARC
  8
DATA
  6
CONTINUOUS
 62
     7
 10
429.385432
 20
1563.066029
 40
2.470359
 50
174.08553
 51
185.91447
  0
CIRCLE
  8
DATA
  6
CONTINUOUS
 62
     7
 10
406.758554
 20
1592.824177
 40
3.500069
  0
CIRCLE
  8
DATA
  6
CONTINUOUS
 62
     7
 10
428.494504
 20
1564.593339
 40
0.636373
  0
LINE
  8
DATA
  6
CONTINUOUS
 62
     7
 10
428.494504
 20
1563.320584
 11
426.928223
 21
1563.320584
  0
LINE
  8
DATA
  6
CONTINUOUS
 62
     7
 10
428.494504
 20
1562.811484
 11
426.928223
 21
1562.811484
  0
CIRCLE
  8
DATA
  6
CONTINUOUS
 62
     7
 10
429.385432
 20
1563.066029
 40
2.987609
  0
CIRCLE
  8
DATA
  6
CONTINUOUS
 62
     7
 10
429.385432
 20
1563.066029
 40
3.500069
  0
LINE
  8
DATA
  6
CONTINUOUS
 62
     7
 10
447.455479
 20
1630.001583
 11
447.455479
 21
1552.00004
  0
LINE
  8
DATA
  6
CONTINUOUS
 62
     7
 10
458.819344
 20
1630.001583
 11
458.819344
 21
1552.00004
  0
LINE
  8
DATA
  6
CONTINUOUS
 62
     7
 10
436.091624
 20
1630.001583
 11
436.091624
 21
1552.00004
  0
LINE
  8
DATA
  6
CONTINUOUS
 62
     7
 10
445.45544
 20
1630.001583
 11
445.45544
 21
1552.00004
  0
LINE
  8
DATA
  6
CONTINUOUS
 62
     7
 10
456.819304
 20
1630.001583
 11
456.819304
 21
1552.00004
  0
LINE
  8
DATA
  6
CONTINUOUS
 62
     7
 10
434.091585
 20
1630.001583
 11
434.091585
 21
1552.00004
  0
LINE
  8
DATA
  6
CONTINUOUS
 62
     7
 10
400.0
 20
1630.001583
 11
400.0
 21
1557.000139
  0
LINE
  8
DATA
  6
CONTINUOUS
 62
     7
 10
402.00004
 20
1630.001583
 11
402.00004
 21
1557.000139
  0
LINE
  8
DATA
  6
CONTINUOUS
 62
     7
 10
413.363904
 20
1630.001583
 11
413.363904
 21
1552.00004
  0
LINE
  8
DATA
  6
CONTINUOUS
 62
     7
 10
411.363865
 20
1630.001583
 11
411.363865
 21
1552.00004
  0
LINE
  8
DATA
  6
CONTINUOUS
 62
     7
 10
422.72772
 20
1630.001583
 11
422.72772
 21
1552.00004
  0
LINE
  8
DATA
  6
CONTINUOUS
 62
     7
 10
424.727759
 20
1630.001583
 11
424.727759
 21
1552.00004
  0
LINE
  8
DIMENSIONS
  6
CONTINUOUS
 62
     7
 10
300.0
 20
1550.0
 11
300.0
 21
1630.001583
  0
LINE
  8
DIMENSIONS
  6
CONTINUOUS
 62
     7
 10
397.000139
 20
1550.0
 11
287.5
 21
1550.0
  0
LINE
  8
DIMENSIONS
  6
CONTINUOUS
 62
     7
 10
390.0
 20
1630.001583
 11
287.5
 21
1630.001583
  0
LINE
  8
DIMENSIONS
  6
CONTINUOUS
 62
     7
 10
303.3332
 20
1570.0
 11
300.0
 21
1550.0
  0
LINE
  8
DIMENSIONS
  6
CONTINUOUS
 62
     7
 10
296.6668
 20
1570.0
 11
300.0
 21
1550.0
  0
LINE
  8
DIMENSIONS
  6
CONTINUOUS
 62
     7
 10
303.3332
 20
1610.001583
 11
300.0
 21
1630.001583
  0
LINE
  8
DIMENSIONS
  6
CONTINUOUS
 62
     7
 10
296.6668
 20
1610.001583
 11
300.0
 21
1630.001583
  0
LINE
  8
DIMENSIONS
  6
CONTINUOUS
 62
     7
 10
400.0
 20
1547.000139
 11
400.0
 21
1487.5
  0
LINE
  8
DIMENSIONS
  6
CONTINUOUS
 62
     7
 10
420.0
 20
1496.6668
 11
400.0
 21
1500.0
  0
LINE
  8
DIMENSIONS
  6
CONTINUOUS
 62
     7
 10
420.0
 20
1503.3332
 11
400.0
 21
1500.0
  0
TEXT
  8
DIMENSIONS
  6
CONTINUOUS
 62
     7
 10
287.5
 20
1577.067219
 40
25.0
  1
80
 50
90.0
  7
TTF_DEFAULT
  0
TEXT
  8
SPEC
  6
CONTINUOUS
 62
     7
 10
187.5
 20
2662.5
 40
30.0
  1
仕様
  7
TTF_DEFAULT
  0
TEXT
  8
SPEC
  6
CONTINUOUS
 62
     7
 10
181.25
 20
2618.75
 40
25.0
  1
電源 / 消費電力
  7
TTF_DEFAULT
  0
TEXT
  8
SPEC
  6
CONTINUOUS
 62
     7
 10
181.25
 20
2581.25
 40
25.0
  1
寸法
  7
TTF_DEFAULT
  0
TEXT
  8
SPEC
  6
CONTINUOUS
 62
     7
 10
181.25
 20
2506.25
 40
25.0
  1
重量
  7
TTF_DEFAULT
  0
LINE
  8
SPEC
  6
CONTINUOUS
 62
     7
 10
175.0
 20
2462.5
 11
175.0
 21
2650.0
  0
ARC
  8
DATA
  6
CONTINUOUS
 62
     7
 10
565.003536
 20
1625.276555
 40
9.725057
 50
29.06891
 51
153.85282
  0
ARC
  8
DATA
  6
CONTINUOUS
 62
     7
 10
498.448978
 20
1618.044667
 40
0.636373
 50
90.0
 51
180.0
  0
LINE
  8
DATA
  6
CONTINUOUS
 62
     7
 10
500.015259
 20
1618.681039
 11
498.448978
 21
1618.681039
  0
LINE
  8
DATA
  6
CONTINUOUS
 62
     7
 10
497.812596
 20
1616.478386
 11
497.812596
 21
1618.044667
  0
ARC
  8
DATA
  6
CONTINUOUS
 62
     7
 10
496.667123
 20
1618.044667
 40
0.636373
 50
0.0
 51
90.0
  0
LINE
  8
DATA
  6
CONTINUOUS
 62
     7
 10
496.667123
 20
1618.681039
 11
495.100842
 21
1618.681039
  0
LINE
  8
DATA
  6
CONTINUOUS
 62
     7
 10
497.303496
 20
1616.478386
 11
497.303496
 21
1618.044667
  0
CIRCLE
  8
DATA
  6
CONTINUOUS
 62
     7
 10
496.667123
 20
1617.408294
 40
0.636373
  0
ARC
  8
DATA
  6
CONTINUOUS
 62
     7
 10
496.667123
 20
1619.826522
 40
0.636373
 50
270.0
 51
0.0
  0
LINE
  8
DATA
  6
CONTINUOUS
 62
     7
 10
496.667123
 20
1619.190139
 11
495.100842
 21
1619.190139
  0
LINE
  8
DATA
  6
CONTINUOUS
 62
     7
 10
497.303496
 20
1619.826522
 11
497.303496
 21
1621.392803
  0
ARC
  8
DATA
  6
CONTINUOUS
 62
     7
 10
498.448978
 20
1619.826522
 40
0.636373
 50
180.0
 51
270.0
  0
LINE
  8
DATA
  6
CONTINUOUS
 62
     7
 10
497.812596
 20
1619.826522
 11
497.812596
 21
1621.392803
  0
LINE
  8
DATA
  6
CONTINUOUS
 62
     7
 10
500.015259
 20
1619.190139
 11
498.448978
 21
1619.190139
  0
ARC
  8
DATA
  6
CONTINUOUS
 62
     7
 10
497.558051
 20
1618.935594
 40
2.470359
 50
354.08553
 51
5.91447
  0
ARC
  8
DATA
  6
CONTINUOUS
 62
     7
 10
497.558051
 20
1618.935594
 40
2.470359
 50
84.08553
 51
95.91447
  0
ARC
  8
DATA
  6
CONTINUOUS
 62
     7
 10
497.558051
 20
1618.935594
 40
2.470359
 50
174.08553
 51
185.91447
  0
ARC
  8
DATA
  6
CONTINUOUS
 62
     7
 10
497.558051
 20
1618.935594
 40
2.470359
 50
264.08553
 51
275.91447
  0
CIRCLE
  8
DATA
  6
CONTINUOUS
 62
     7
 10
497.558051
 20
1618.935594
 40
2.987609
  0
CIRCLE
  8
DATA
  6
CONTINUOUS
 62
     7
 10
497.558051
 20
1618.935594
 40
3.500069
  0
ARC
  8
DATA
  6
CONTINUOUS
 62
     7
 10
578.003523
 20
1557.000139
 40
7.000139
 50
270.0
 51
0.0
  0
ARC
  8
DATA
  6
CONTINUOUS
 62
     7
 10
578.003523
 20
1557.000139
 40
5.000099
 50
270.0
 51
0.0
  0
ARC
  8
DATA
  6
CONTINUOUS
 62
     7
 10
521.221839
 20
1591.637184
 40
0.636373
 50
180.0
 51
270.0
  0
LINE
  8
DATA
  6
CONTINUOUS
 62
     7
 10
522.78812
 20
1591.000811
 11
521.221839
 21
1591.000811
  0
LINE
  8
DATA
  6
CONTINUOUS
 62
     7
 10
520.585466
 20
1593.203475
 11
520.585466
 21
1591.637184
  0
ARC
  8
DATA
  6
CONTINUOUS
 62
     7
 10
519.439984
 20
1591.637184
 40
0.636373
 50
270.0
 51
0.0
  0
LINE
  8
DATA
  6
CONTINUOUS
 62
     7
 10
519.439984
 20
1591.000811
 11
517.873703
 21
1591.000811
  0
LINE
  8
DATA
  6
CONTINUOUS
 62
     7
 10
520.076366
 20
1593.203475
 11
520.076366
 21
1591.637184
  0
CIRCLE
  8
DATA
  6
CONTINUOUS
 62
     7
 10
519.439984
 20
1592.273567
 40
0.636373
  0
LINE
  8
DATA
  6
CONTINUOUS
 62
     7
 10
519.439984
 20
1590.491711
 11
517.873703
 21
1590.491711
  0
LINE
  8
DATA
  6
CONTINUOUS
 62
     7
 10
522.78812
 20
1590.491711
 11
521.221839
 21
1590.491711
  0
ARC
  8
DATA
  6
CONTINUOUS
 62
     7
 10
520.330911
 20
1590.746266
 40
2.470359
 50
354.08553
 51
5.91447
  0
ARC
  8
DATA
  6
CONTINUOUS
 62
     7
 10
520.330911
 20
1590.746266
 40
2.470359
 50
174.08553
 51
185.91447
  0
ARC
  8
DATA
  6
CONTINUOUS
 62
     7
 10
520.330911
 20
1590.746266
 40
2.470359
 50
84.08553
 51
95.91447
  0
ARC
  8
DATA
  6
CONTINUOUS
 62
     7
 10
519.439984
 20
1589.855339
 40
0.636373
 50
0.0
 51
90.0
  0
ARC
  8
DATA
  6
CONTINUOUS
 62
     7
 10
521.221839
 20
1589.855339
 40
0.636373
 50
90.0
 51
180.0
  0
ARC
  8
DATA
  6
CONTINUOUS
 62
     7
 10
520.330911
 20
1590.746266
 40
2.470359
 50
264.08553
 51
275.91447
  0
LINE
  8
DATA
  6
CONTINUOUS
 62
     7
 10
520.076366
 20
1589.855339
 11
520.076366
 21
1588.289048
  0
LINE
  8
DATA
  6
CONTINUOUS
 62
     7
 10
520.585466
 20
1589.855339
 11
520.585466
 21
1588.289048
  0
CIRCLE
  8
DATA
  6
CONTINUOUS
 62
     7
 10
520.330911
 20
1590.746266
 40
2.987609
  0
CIRCLE
  8
DATA
  6
CONTINUOUS
 62
     7
 10
520.330911
 20
1590.746266
 40
3.500069
  0
ARC
  8
DATA
  6
CONTINUOUS
 62
     7
 10
464.435655
 20
1591.891739
 40
0.636373
 50
180.0
 51
270.0
  0
LINE
  8
DATA
  6
CONTINUOUS
 62
     7
 10
466.001936
 20
1591.255366
 11
464.435655
 21
1591.255366
  0
LINE
  8
DATA
  6
CONTINUOUS
 62
     7
 10
463.799283
 20
1593.45802
 11
463.799283
 21
1591.891739
  0
ARC
  8
DATA
  6
CONTINUOUS
 62
     7
 10
462.6538
 20
1591.891739
 40
0.636373
 50
270.0
 51
0.0
  0
LINE
  8
DATA
  6
CONTINUOUS
 62
     7
 10
462.6538
 20
1591.255366
 11
461.087519
 21
1591.255366
  0
LINE
  8
DATA
  6
CONTINUOUS
 62
     7
 10
463.290182
 20
1593.45802
 11
463.290182
 21
1591.891739
  0
CIRCLE
  8
DATA
  6
CONTINUOUS
 62
     7
 10
462.6538
 20
1592.528112
 40
0.636373
  0
ARC
  8
DATA
  6
CONTINUOUS
 62
     7
 10
462.6538
 20
1590.109884
 40
0.636373
 50
0.0
 51
90.0
  0
LINE
  8
DATA
  6
CONTINUOUS
 62
     7
 10
462.6538
 20
1590.746266
 11
461.087519
 21
1590.746266
  0
ARC
  8
DATA
  6
CONTINUOUS
 62
     7
 10
464.435655
 20
1590.109884
 40
0.636373
 50
90.0
 51
180.0
  0
LINE
  8
DATA
  6
CONTINUOUS
 62
     7
 10
466.001936
 20
1590.746266
 11
464.435655
 21
1590.746266
  0
ARC
  8
DATA
  6
CONTINUOUS
 62
     7
 10
463.544728
 20
1591.000811
 40
2.470359
 50
354.08553
 51
5.91447
  0
ARC
  8
DATA
  6
CONTINUOUS
 62
     7
 10
463.544728
 20
1591.000811
 40
2.470359
 50
174.08553
 51
185.91447
  0
ARC
  8
DATA
  6
CONTINUOUS
 62
     7
 10
463.544728
 20
1591.000811
 40
2.470359
 50
84.08553
 51
95.91447
  0
ARC
  8
DATA
  6
CONTINUOUS
 62
     7
 10
463.544728
 20
1591.000811
 40
2.470359
 50
264.08553
 51
275.91447
  0
ARC
  8
DATA
  6
CONTINUOUS
 62
     7
 10
498.448978
 20
1563.956956
 40
0.636373
 50
180.0
 51
270.0
  0
LINE
  8
DATA
  6
CONTINUOUS
 62
     7
 10
500.015259
 20
1563.320584
 11
498.448978
 21
1563.320584
  0
LINE
  8
DATA
  6
CONTINUOUS
 62
     7
 10
497.812596
 20
1565.523237
 11
497.812596
 21
1563.956956
  0
ARC
  8
DATA
  6
CONTINUOUS
 62
     7
 10
496.667123
 20
1563.956956
 40
0.636373
 50
270.0
 51
0.0
  0
LINE
  8
DATA
  6
CONTINUOUS
 62
     7
 10
496.667123
 20
1563.320584
 11
495.100842
 21
1563.320584
  0
LINE
  8
DATA
  6
CONTINUOUS
 62
     7
 10
497.303496
 20
1565.523237
 11
497.303496
 21
1563.956956
  0
CIRCLE
  8
DATA
  6
CONTINUOUS
 62
     7
 10
496.667123
 20
1564.593339
 40
0.636373
  0
ARC
  8
DATA
  6
CONTINUOUS
 62
     7
 10
496.667123
 20
1562.175101
 40
0.636373
 50
0.0
 51
90.0
  0
LINE
  8
DATA
  6
CONTINUOUS
 62
     7
 10
496.667123
 20
1562.811484
 11
495.100842
 21
1562.811484
  0
LINE
  8
DATA
  6
CONTINUOUS
 62
     7
 10
497.303496
 20
1562.175101
 11
497.303496
 21
1560.60882
  0
ARC
  8
DATA
  6
CONTINUOUS
 62
     7
 10
498.448978
 20
1562.175101
 40
0.636373
 50
90.0
 51
180.0
  0
LINE
  8
DATA
  6
CONTINUOUS
 62
     7
 10
497.812596
 20
1562.175101
 11
497.812596
 21
1560.60882
  0
LINE
  8
DATA
  6
CONTINUOUS
 62
     7
 10
500.015259
 20
1562.811484
 11
498.448978
 21
1562.811484
  0
ARC
  8
DATA
  6
CONTINUOUS
 62
     7
 10
497.558051
 20
1563.066029
 40
2.470359
 50
354.08553
 51
5.91447
  0
ARC
  8
DATA
  6
CONTINUOUS
 62
     7
 10
497.558051
 20
1563.066029
 40
2.470359
 50
264.08553
 51
275.91447
  0
ARC
  8
DATA
  6
CONTINUOUS
 62
     7
 10
497.558051
 20
1563.066029
 40
2.470359
 50
174.08553
 51
185.91447
  0
ARC
  8
DATA
  6
CONTINUOUS
 62
     7
 10
497.558051
 20
1563.066029
 40
2.470359
 50
84.08553
 51
95.91447
  0
CIRCLE
  8
DATA
  6
CONTINUOUS
 62
     7
 10
497.558051
 20
1563.066029
 40
2.987609
  0
CIRCLE
  8
DATA
  6
CONTINUOUS
 62
     7
 10
497.558051
 20
1563.066029
 40
3.500069
  0
LINE
  8
DATA
  6
CONTINUOUS
 62
     7
 10
463.290182
 20
1590.109884
 11
463.290182
 21
1588.543603
  0
LINE
  8
DATA
  6
CONTINUOUS
 62
     7
 10
463.799283
 20
1590.109884
 11
463.799283
 21
1588.543603
  0
CIRCLE
  8
DATA
  6
CONTINUOUS
 62
     7
 10
463.544728
 20
1591.000811
 40
2.987609
  0
CIRCLE
  8
DATA
  6
CONTINUOUS
 62
     7
 10
463.544728
 20
1591.000811
 40
3.500069
  0
LINE
  8
DATA
  6
CONTINUOUS
 62
     7
 10
585.003661
 20
1630.001583
 11
585.003661
 21
1557.000139
  0
LINE
  8
DATA
  6
CONTINUOUS
 62
     7
 10
583.003622
 20
1630.001583
 11
583.003622
 21
1557.000139
  0
LINE
  8
DATA
  6
CONTINUOUS
 62
     7
 10
525.002474
 20
1630.001583
 11
525.002474
 21
1552.00004
  0
LINE
  8
DATA
  6
CONTINUOUS
 62
     7
 10
527.002513
 20
1630.001583
 11
527.002513
 21
1552.00004
  0
LINE
  8
DATA
  6
CONTINUOUS
 62
     7
 10
513.638609
 20
1630.001583
 11
513.638609
 21
1552.00004
  0
LINE
  8
DATA
  6
CONTINUOUS
 62
     7
 10
515.638648
 20
1630.001583
 11
515.638648
 21
1552.00004
  0
LINE
  8
DATA
  6
CONTINUOUS
 62
     7
 10
504.274794
 20
1630.001583
 11
504.274794
 21
1552.00004
  0
LINE
  8
DATA
  6
CONTINUOUS
 62
     7
 10
468.183169
 20
1630.001583
 11
468.183169
 21
1552.00004
  0
LINE
  8
DATA
  6
CONTINUOUS
 62
     7
 10
470.183209
 20
1630.001583
 11
470.183209
 21
1552.00004
  0
LINE
  8
DATA
  6
CONTINUOUS
 62
     7
 10
479.547024
 20
1630.001583
 11
479.547024
 21
1552.00004
  0
LINE
  8
DATA
  6
CONTINUOUS
 62
     7
 10
481.547064
 20
1630.001583
 11
481.547064
 21
1552.00004
  0
LINE
  8
DATA
  6
CONTINUOUS
 62
     7
 10
490.910889
 20
1630.001583
 11
490.910889
 21
1552.00004
  0
LINE
  8
DATA
  6
CONTINUOUS
 62
     7
 10
492.910929
 20
1630.001583
 11
492.910929
 21
1552.00004
  0
LINE
  8
DATA
  6
CONTINUOUS
 62
     7
 10
502.274754
 20
1630.001583
 11
502.274754
 21
1552.00004
  0
LINE
  8
DIMENSIONS
  6
CONTINUOUS
 62
     7
 10
527.002513
 20
1542.00004
 11
527.002513
 21
1487.5
  0
LINE
  8
DIMENSIONS
  6
CONTINUOUS
 62
     7
 10
507.002513
 20
1496.6668
 11
527.002513
 21
1500.0
  0
LINE
  8
DIMENSIONS
  6
CONTINUOUS
 62
     7
 10
507.002513
 20
1503.3332
 11
527.002513
 21
1500.0
  0
TEXT
  8
SPEC
  6
CONTINUOUS
 62
     7
 10
506.25
 20
2476.25
 40
25.0
  1
ラックマウントパネル仕様（オプション）: 約3kg
  7
TTF_DEFAULT
  0
TEXT
  8
SPEC
  6
CONTINUOUS
 62
     7
 10
506.25
 20
2581.25
 40
25.0
  1
185(W)×85(H)×210(D)mm
  7
TTF_DEFAULT
  0
LINE
  8
SPEC
  6
CONTINUOUS
 62
     7
 10
500.0
 20
2650.0
 11
500.0
 21
2462.5
  0
TEXT
  8
SPEC
  6
CONTINUOUS
 62
     7
 10
506.25
 20
2506.25
 40
25.0
  1
約2kg
  7
TTF_DEFAULT
  0
TEXT
  8
SPEC
  6
CONTINUOUS
 62
     7
 10
506.25
 20
2618.75
 40
25.0
  1
AC100V 50/60Hz 95VA
  7
TTF_DEFAULT
  0
TEXT
  8
HIBINO-BASE
  6
CONTINUOUS
 62
     7
 10
1487.5
 20
175.0
 40
25.0
  1
N.Sasaki
  7
TTF_DEFAULT
  0
LINE
  8
HIBINO-BASE
  6
CONTINUOUS
 62
     7
 10
1000.0
 20
250.0
 11
1900.0
 21
250.0
  0
TEXT
  8
HIBINO-BASE
  6
CONTINUOUS
 62
     7
 10
1480.0
 20
225.0
 40
25.0
  1
DRAWN
  7
TTF_DEFAULT
  0
LINE
  8
KANAGU
  6
CONTINUOUS
 62
     7
 10
1100.0
 20
888.0
 11
1582.6
 21
888.0
  0
LINE
  8
KANAGU
  6
CONTINUOUS
 62
     7
 10
1582.6
 20
800.0
 11
1100.0
 21
800.0
  0
LINE
  8
KANAGU
  6
CONTINUOUS
 62
     7
 10
1433.800551
 20
1149.0
 11
1554.8
 21
1149.0
  0
LINE
  8
KANAGU
  6
CONTINUOUS
 62
     7
 10
1127.8
 20
1120.0
 11
1554.8
 21
1120.0
  0
LINE
  8
KANAGU
  6
CONTINUOUS
 62
     7
 10
1100.0
 20
1102.0
 11
1582.6
 21
1102.0
  0
LINE
  8
KANAGU
  6
CONTINUOUS
 62
     7
 10
1100.0
 20
1100.0
 11
1582.6
 21
1100.0
  0
LINE
  8
KANAGU
  6
CONTINUOUS
 62
     7
 10
1125.0
 20
600.0
 11
1575.0
 21
600.0
  0
LINE
  8
DIMENSIONS
  6
CONTINUOUS
 62
     7
 10
1100.0
 20
950.0
 11
1582.6
 21
950.0
  0
LINE
  8
KANAGU
  6
CONTINUOUS
 62
     7
 10
1000.0
 20
376.5
 11
1900.0
 21
376.5
  0
LINE
  8
KANAGU
  6
CONTINUOUS
 62
     7
 10
1000.0
 20
373.5
 11
1900.0
 21
373.5
  0
LINE
  8
KANAGU
  6
CONTINUOUS
 62
     7
 10
1000.0
 20
376.5
 11
1000.0
 21
373.5
  0
LINE
  8
KANAGU
  6
CONTINUOUS
 62
     7
 10
1900.0
 20
376.5
 11
1900.0
 21
373.5
  0
SOLID
  8
HIBINO-BASE
  6
CONTINUOUS
 62
     7
 10
1000.0
 20
376.5
 11
1900.0
 21
376.5
 12
1000.0
 22
373.5
 13
1900.0
 23
373.5
  0
TEXT
  8
DATA
  6
CONTINUOUS
 62
     7
 10
1342.031223
 20
751.700629
 40
18.75
  1
DCコード長さ約3m
  7
TTF_DEFAULT
  0
TEXT
  8
DATA
  6
CONTINUOUS
 62
     7
 10
1342.03123
 20
1049.700643
 40
18.75
  1
DCコード長さ約3m
  7
TTF_DEFAULT
  0
TEXT
  8
KANAGU
  6
CONTINUOUS
 62
     7
 10
1153.646144
 20
612.5
 40
22.0
  1
ラックマウントパネル仕様（オプション）
  7
TTF_DEFAULT
  0
TEXT
  8
HIBINO-BASE
  6
CONTINUOUS
 62
     7
 10
1230.0
 20
225.0
 40
25.0
  1
DATE
  7
TTF_DEFAULT
  0
TEXT
  8
HIBINO-BASE
  6
CONTINUOUS
 62
     7
 10
1237.5
 20
175.0
 40
25.0
  1
'98.06.
  7
TTF_DEFAULT
  0
LINE
  8
KANAGU
  6
CONTINUOUS
 62
     7
 10
998.5
 20
150.0
 11
998.5
 21
375.0
  0
LINE
  8
KANAGU
  6
CONTINUOUS
 62
     7
 10
1001.5
 20
150.0
 11
1001.5
 21
375.0
  0
LINE
  8
KANAGU
  6
CONTINUOUS
 62
     7
 10
998.5
 20
150.0
 11
1001.5
 21
150.0
  0
LINE
  8
KANAGU
  6
CONTINUOUS
 62
     7
 10
998.5
 20
375.0
 11
1001.5
 21
375.0
  0
SOLID
  8
HIBINO-BASE
  6
CONTINUOUS
 62
     7
 10
998.5
 20
150.0
 11
998.5
 21
375.0
 12
1001.5
 22
150.0
 13
1001.5
 23
375.0
  0
TEXT
  8
HIBINO-BASE
  6
CONTINUOUS
 62
     7
 10
1037.5
 20
162.5
 40
40.0
  1
A4
  7
TTF_DEFAULT
  0
LINE
  8
HIBINO-BASE
  6
CONTINUOUS
 62
     7
 10
1143.75
 20
162.5
 11
1181.25
 21
200.0
  0
TEXT
  8
HIBINO-BASE
  6
CONTINUOUS
 62
     7
 10
1137.5
 20
181.25
 40
30.0
  1
1
  7
TTF_DEFAULT
  0
TEXT
  8
HIBINO-BASE
  6
CONTINUOUS
 62
     7
 10
1005.0
 20
225.0
 40
22.5
  1
図面サイズ
  7
TTF_DEFAULT
  0
TEXT
  8
HIBINO-BASE
  6
CONTINUOUS
 62
     7
 10
1130.0
 20
225.0
 40
25.0
  1
SCALE
  7
TTF_DEFAULT
  0
LINE
  8
HIBINO-BASE
  6
CONTINUOUS
 62
     7
 10
1225.0
 20
150.0
 11
1225.0
 21
250.0
  0
LINE
  8
HIBINO-BASE
  6
CONTINUOUS
 62
     7
 10
1125.0
 20
150.0
 11
1125.0
 21
250.0
  0
TEXT
  8
HIBINO-BASE
  6
CONTINUOUS
 62
     7
 10
1175.0
 20
162.5
 40
30.0
  1
10
  7
TTF_DEFAULT
  0
TEXT
  8
HIBINO-BASE
  6
CONTINUOUS
 62
     7
 10
1005.0
 20
350.0
 40
25.0
  1
NOTE
  7
TTF_DEFAULT
  0
LINE
  8
HIBINO-BASE
  6
CONTINUOUS
 62
     7
 10
1350.0
 20
150.0
 11
1350.0
 21
375.0
  0
TEXT
  8
HIBINO-BASE
  6
CONTINUOUS
 62
     7
 10
1355.0
 20
225.0
 40
25.0
  1
DESIGN
  7
TTF_DEFAULT
  0
LINE
  8
HIBINO-BASE
  6
CONTINUOUS
 62
     7
 10
1475.0
 20
250.0
 11
1475.0
 21
150.0
  0
TEXT
  8
HIBINO-BASE
  6
CONTINUOUS
 62
     7
 10
1355.0
 20
350.0
 40
25.0
  1
TITLE
  7
TTF_DEFAULT
  0
LINE
  8
KANAGU
  6
CONTINUOUS
 62
     7
 10
1127.8
 20
1149.0
 11
1248.799435
 21
1149.0
  0
LINE
  8
DIMENSIONS
  6
CONTINUOUS
 62
     7
 10
1388.381541
 20
1094.001172
 11
1037.5
 21
1094.001172
  0
LINE
  8
KANAGU
  6
CONTINUOUS
 62
     7
 10
1106.3
 20
885.6
 11
1111.3
 21
885.6
  0
LINE
  8
KANAGU
  6
CONTINUOUS
 62
     7
 10
1106.3
 20
878.6
 11
1111.3
 21
878.6
  0
ARC
  8
KANAGU
  6
CONTINUOUS
 62
     7
 10
1111.3
 20
882.1
 40
3.5
 50
270.0
 51
90.0
  0
ARC
  8
KANAGU
  6
CONTINUOUS
 62
     7
 10
1106.3
 20
882.1
 40
3.5
 50
90.0
 51
270.0
  0
ARC
  8
KANAGU
  6
CONTINUOUS
 62
     7
 10
1111.3
 20
805.9
 40
3.5
 50
270.0
 51
90.0
  0
ARC
  8
KANAGU
  6
CONTINUOUS
 62
     7
 10
1106.3
 20
805.9
 40
3.5
 50
90.0
 51
270.0
  0
LINE
  8
KANAGU
  6
CONTINUOUS
 62
     7
 10
1106.3
 20
809.4
 11
1111.3
 21
809.4
  0
LINE
  8
KANAGU
  6
CONTINUOUS
 62
     7
 10
1106.3
 20
802.4
 11
1111.3
 21
802.4
  0
LINE
  8
KANAGU
  6
CONTINUOUS
 62
     7
 10
1100.0
 20
800.0
 11
1100.0
 21
888.0
  0
LINE
  8
DIMENSIONS
  6
CONTINUOUS
 62
     7
 10
1050.0
 20
888.0
 11
1050.0
 21
800.0
  0
LINE
  8
DIMENSIONS
  6
CONTINUOUS
 62
     7
 10
1090.0
 20
888.0
 11
1037.5
 21
888.0
  0
LINE
  8
DIMENSIONS
  6
CONTINUOUS
 62
     7
 10
1090.0
 20
800.0
 11
1037.5
 21
800.0
  0
LINE
  8
DIMENSIONS
  6
CONTINUOUS
 62
     7
 10
1046.6668
 20
868.0
 11
1050.0
 21
888.0
  0
LINE
  8
DIMENSIONS
  6
CONTINUOUS
 62
     7
 10
1053.3332
 20
868.0
 11
1050.0
 21
888.0
  0
LINE
  8
DIMENSIONS
  6
CONTINUOUS
 62
     7
 10
1046.6668
 20
820.0
 11
1050.0
 21
800.0
  0
LINE
  8
DIMENSIONS
  6
CONTINUOUS
 62
     7
 10
1053.3332
 20
820.0
 11
1050.0
 21
800.0
  0
LINE
  8
DIMENSIONS
  6
CONTINUOUS
 62
     7
 10
1100.0
 20
898.0
 11
1100.0
 21
962.5
  0
LINE
  8
DIMENSIONS
  6
CONTINUOUS
 62
     7
 10
1120.0
 20
946.6668
 11
1100.0
 21
950.0
  0
LINE
  8
DIMENSIONS
  6
CONTINUOUS
 62
     7
 10
1120.0
 20
953.3332
 11
1100.0
 21
950.0
  0
TEXT
  8
DIMENSIONS
  6
CONTINUOUS
 62
     7
 10
1037.5
 20
830.104655
 40
25.0
  1
88
 50
90.0
  7
TTF_DEFAULT
  0
ARC
  8
KANAGU
  6
CONTINUOUS
 62
     7
 10
1127.8
 20
1146.5
 40
2.5
 50
90.0
 51
180.0
  0
ARC
  8
KANAGU
  6
CONTINUOUS
 62
     7
 10
1127.8
 20
1117.5
 40
2.5
 50
90.0
 51
180.0
  0
LINE
  8
KANAGU
  6
CONTINUOUS
 62
     7
 10
1125.3
 20
1117.5
 11
1125.3
 21
1146.5
  0
LINE
  8
KANAGU
  6
CONTINUOUS
 62
     7
 10
1125.3
 20
1117.5
 11
1125.3
 21
1102.0
  0
LINE
  8
KANAGU
  6
CONTINUOUS
 62
     7
 10
1100.0
 20
1100.0
 11
1100.0
 21
1102.0
  0
LINE
  8
DIMENSIONS
  6
CONTINUOUS
 62
     7
 10
1050.0
 20
1304.001158
 11
1050.0
 21
1094.001172
  0
LINE
  8
DIMENSIONS
  6
CONTINUOUS
 62
     7
 10
1238.799449
 20
1304.001158
 11
1037.5
 21
1304.001158
  0
LINE
  8
DIMENSIONS
  6
CONTINUOUS
 62
     7
 10
1046.6668
 20
1284.001158
 11
1050.0
 21
1304.001158
  0
LINE
  8
DIMENSIONS
  6
CONTINUOUS
 62
     7
 10
1053.3332
 20
1284.001158
 11
1050.0
 21
1304.001158
  0
LINE
  8
DIMENSIONS
  6
CONTINUOUS
 62
     7
 10
1046.6668
 20
1114.001172
 11
1050.0
 21
1094.001172
  0
LINE
  8
DIMENSIONS
  6
CONTINUOUS
 62
     7
 10
1053.3332
 20
1114.001172
 11
1050.0
 21
1094.001172
  0
TEXT
  8
DIMENSIONS
  6
CONTINUOUS
 62
     7
 10
1037.5
 20
1178.158147
 40
25.0
  1
210
 50
90.0
  7
TTF_DEFAULT
  0
LINE
  8
DATA
  6
CONTINUOUS
 62
     7
 10
1257.799568
 20
1033.097329
 11
1257.799568
 21
1101.999955
  0
LINE
  8
DATA
  6
CONTINUOUS
 62
     7
 10
1264.799609
 20
1033.902581
 11
1264.799609
 21
1101.999955
  0
ARC
  8
KANAGU
  6
CONTINUOUS
 62
     7
 10
1423.8
 20
875.25
 40
5.0
 50
0.0
 51
90.0
  0
LINE
  8
DATA
  6
CONTINUOUS
 62
     7
 10
1395.881526
 20
876.130738
 11
1420.881673
 21
876.130738
  0
LINE
  8
DATA
  6
CONTINUOUS
 62
     7
 10
1395.881526
 20
876.130738
 11
1420.881673
 21
876.130738
  0
ARC
  8
DATA
  6
CONTINUOUS
 62
     7
 10
1426.800503
 20
877.000385
 40
7.000041
 50
0.0
 51
90.0
  0
ARC
  8
DATA
  6
CONTINUOUS
 62
     7
 10
1426.800503
 20
877.000385
 40
5.000029
 50
0.0
 51
90.0
  0
LINE
  8
DATA
  6
CONTINUOUS
 62
     7
 10
1418.381651
 20
871.130709
 11
1398.381534
 21
871.130709
  0
LINE
  8
DATA
  6
CONTINUOUS
 62
     7
 10
1398.381534
 20
861.13065
 11
1418.381651
 21
861.13065
  0
LINE
  8
DATA
  6
CONTINUOUS
 62
     7
 10
1398.381534
 20
865.630669
 11
1418.381651
 21
865.630669
  0
TEXT
  8
DATA
  6
CONTINUOUS
 62
     7
 10
1422.881673
 20
849.130548
 40
5.0
  1
OFF
  7
TTF_DEFAULT
  0
LINE
  8
DATA
  6
CONTINUOUS
 62
     7
 10
1395.881526
 20
846.130548
 11
1420.881673
 21
846.130548
  0
LINE
  8
DATA
  6
CONTINUOUS
 62
     7
 10
1398.381534
 20
851.130577
 11
1418.381651
 21
851.130577
  0
LINE
  8
DATA
  6
CONTINUOUS
 62
     7
 10
1418.381651
 20
851.130577
 11
1418.381651
 21
871.130709
  0
LINE
  8
DATA
  6
CONTINUOUS
 62
     7
 10
1398.381534
 20
871.130709
 11
1398.381534
 21
851.130577
  0
TEXT
  8
DATA
  6
CONTINUOUS
 62
     7
 10
1423.881673
 20
871.130738
 40
5.0
  1
ON
  7
TTF_DEFAULT
  0
LINE
  8
DATA
  6
CONTINUOUS
 62
     7
 10
1420.881673
 20
846.130548
 11
1420.881673
 21
876.130738
  0
LINE
  8
DATA
  6
CONTINUOUS
 62
     7
 10
1395.881526
 20
846.130548
 11
1395.881526
 21
876.130738
  0
ARC
  8
KANAGU
  6
CONTINUOUS
 62
     7
 10
1423.8
 20
812.75
 40
5.0
 50
270.0
 51
0.0
  0
ARC
  8
DATA
  6
CONTINUOUS
 62
     7
 10
1413.800434
 20
808.724969
 40
9.725057
 50
209.06891
 51
330.93109
  0
LINE
  8
DATA
  6
CONTINUOUS
 62
     7
 10
1419.593736
 20
824.580523
 11
1414.116849
 21
830.057397
  0
LINE
  8
DATA
  6
CONTINUOUS
 62
     7
 10
1402.794716
 20
823.441203
 11
1402.794716
 21
821.441191
  0
LINE
  8
DATA
  6
CONTINUOUS
 62
     7
 10
1410.727352
 20
823.441203
 11
1410.727352
 21
821.441191
  0
LINE
  8
DATA
  6
CONTINUOUS
 62
     7
 10
1406.761034
 20
826.407515
 11
1406.761034
 21
824.407503
  0
LINE
  8
DATA
  6
CONTINUOUS
 62
     7
 10
1422.80048
 20
836.458118
 11
1422.80048
 21
813.457969
  0
LINE
  8
DATA
  6
CONTINUOUS
 62
     7
 10
1419.593736
 20
818.644798
 11
1419.593736
 21
824.580523
  0
LINE
  8
DATA
  6
CONTINUOUS
 62
     7
 10
1394.593575
 20
825.245766
 11
1399.40522
 21
830.057397
  0
LINE
  8
DATA
  6
CONTINUOUS
 62
     7
 10
1394.593575
 20
818.644798
 11
1394.593575
 21
825.245766
  0
LINE
  8
DATA
  6
CONTINUOUS
 62
     7
 10
1394.593575
 20
818.644798
 11
1419.593736
 21
818.644798
  0
LINE
  8
DATA
  6
CONTINUOUS
 62
     7
 10
1399.40522
 20
830.057397
 11
1414.116849
 21
830.057397
  0
LINE
  8
DATA
  6
CONTINUOUS
 62
     7
 10
1374.800197
 20
836.458118
 11
1374.800197
 21
813.457969
  0
LINE
  8
DATA
  6
CONTINUOUS
 62
     7
 10
1374.800197
 20
813.457969
 11
1422.80048
 21
813.457969
  0
LINE
  8
DATA
  6
CONTINUOUS
 62
     7
 10
1422.80048
 20
836.458118
 11
1374.800197
 21
836.458118
  0
LINE
  8
KANAGU
  6
CONTINUOUS
 62
     7
 10
1428.8
 20
812.75
 11
1428.8
 21
875.25
  0
LINE
  8
DATA
  6
CONTINUOUS
 62
     7
 10
1433.800544
 20
803.999941
 11
1433.800544
 21
877.000385
  0
LINE
  8
DATA
  6
CONTINUOUS
 62
     7
 10
1431.800533
 20
803.999941
 11
1431.800533
 21
877.000385
  0
ARC
  8
KANAGU
  6
CONTINUOUS
 62
     7
 10
1258.8
 20
875.25
 40
5.0
 50
90.0
 51
180.0
  0
ARC
  8
DATA
  6
CONTINUOUS
 62
     7
 10
1255.799483
 20
877.000385
 40
7.000041
 50
90.0
 51
180.0
  0
ARC
  8
DATA
  6
CONTINUOUS
 62
     7
 10
1255.799483
 20
877.000385
 40
5.000029
 50
90.0
 51
180.0
  0
LINE
  8
KANAGU
  6
CONTINUOUS
 62
     7
 10
1258.8
 20
807.75
 11
1270.299561
 21
807.75
  0
ARC
  8
KANAGU
  6
CONTINUOUS
 62
     7
 10
1258.8
 20
812.75
 40
5.0
 50
180.0
 51
270.0
  0
LINE
  8
DATA
  6
CONTINUOUS
 62
     7
 10
1248.799428
 20
803.999941
 11
1270.299561
 21
803.999941
  0
ARC
  8
DATA
  6
CONTINUOUS
 62
     7
 10
1268.799552
 20
808.724969
 40
9.725057
 50
209.06891
 51
278.872817
  0
ARC
  8
DATA
  6
CONTINUOUS
 62
     7
 10
1273.799589
 20
818.3562
 40
5.222523
 50
312.080759
 51
227.919241
  0
ARC
  8
DATA
  6
CONTINUOUS
 62
     7
 10
1273.799589
 20
818.3562
 40
3.500028
 50
0.0
 51
180.0
  0
LINE
  8
KANAGU
  6
CONTINUOUS
 62
     7
 10
1253.8
 20
812.75
 11
1253.8
 21
875.25
  0
LINE
  8
DATA
  6
CONTINUOUS
 62
     7
 10
1248.799428
 20
803.999941
 11
1248.799428
 21
877.000385
  0
LINE
  8
DATA
  6
CONTINUOUS
 62
     7
 10
1250.79944
 20
803.999941
 11
1250.79944
 21
877.000385
  0
LINE
  8
KANAGU
  6
CONTINUOUS
 62
     7
 10
1277.299603
 20
807.75
 11
1423.8
 21
807.75
  0
LINE
  8
KANAGU
  6
CONTINUOUS
 62
     7
 10
1258.8
 20
880.25
 11
1423.8
 21
880.25
  0
LINE
  8
DATA
  6
CONTINUOUS
 62
     7
 10
1255.799483
 20
882.000414
 11
1426.800503
 21
882.000414
  0
LINE
  8
DATA
  6
CONTINUOUS
 62
     7
 10
1255.799483
 20
884.000426
 11
1426.800503
 21
884.000426
  0
LINE
  8
DATA
  6
CONTINUOUS
 62
     7
 10
1277.299603
 20
803.999941
 11
1433.800544
 21
803.999941
  0
LINE
  8
DATA
  6
CONTINUOUS
 62
     7
 10
1417.478484
 20
1015.499887
 11
1417.478484
 21
1038.500023
  0
LINE
  8
DATA
  6
CONTINUOUS
 62
     7
 10
1425.478531
 20
1015.499887
 11
1425.478531
 21
1038.500023
  0
LINE
  8
DATA
  6
CONTINUOUS
 62
     7
 10
1428.799156
 20
1015.749885
 11
1428.799156
 21
1038.250025
  0
LINE
  8
DATA
  6
CONTINUOUS
 62
     7
 10
1454.191202
 20
1012.49987
 11
1454.191202
 21
1041.50004
  0
CIRCLE
  8
DATA
  6
CONTINUOUS
 62
     7
 10
1421.478507
 20
1018.33438
 40
1.500016
  0
CIRCLE
  8
DATA
  6
CONTINUOUS
 62
     7
 10
1421.478507
 20
1018.33438
 40
2.464995
  0
LINE
  8
DATA
  6
CONTINUOUS
 62
     7
 10
1473.799435
 20
1016.999889
 11
1473.799435
 21
1037.000021
  0
LINE
  8
DATA
  6
CONTINUOUS
 62
     7
 10
1468.691294
 20
1012.49987
 11
1468.691294
 21
1041.50004
  0
LINE
  8
DATA
  6
CONTINUOUS
 62
     7
 10
1454.191202
 20
1014.916545
 11
1468.691294
 21
1014.916545
  0
LINE
  8
DATA
  6
CONTINUOUS
 62
     7
 10
1454.191202
 20
1013.708214
 11
1468.691294
 21
1013.708214
  0
LINE
  8
DATA
  6
CONTINUOUS
 62
     7
 10
1454.191202
 20
1012.49987
 11
1468.691294
 21
1012.49987
  0
LINE
  8
DATA
  6
CONTINUOUS
 62
     7
 10
1454.191202
 20
1017.333234
 11
1468.691294
 21
1017.333234
  0
LINE
  8
DATA
  6
CONTINUOUS
 62
     7
 10
1454.191202
 20
1016.124889
 11
1468.691294
 21
1016.124889
  0
LINE
  8
DATA
  6
CONTINUOUS
 62
     7
 10
1448.799274
 20
1013.499876
 11
1454.191202
 21
1013.499876
  0
ARC
  8
DATA
  6
CONTINUOUS
 62
     7
 10
1418.47849
 20
1015.499887
 40
1.000006
 50
180.0
 51
270.0
  0
ARC
  8
DATA
  6
CONTINUOUS
 62
     7
 10
1424.478525
 20
1015.499887
 40
1.000006
 50
270.0
 51
0.0
  0
LINE
  8
DATA
  6
CONTINUOUS
 62
     7
 10
1424.478525
 20
1014.499881
 11
1418.47849
 21
1014.499881
  0
LINE
  8
DATA
  6
CONTINUOUS
 62
     7
 10
1428.799156
 20
1015.749885
 11
1448.799274
 21
1013.499876
  0
LINE
  8
DATA
  6
CONTINUOUS
 62
     7
 10
1473.799435
 20
1016.999889
 11
1468.691294
 21
1016.999889
  0
LINE
  8
DATA
  6
CONTINUOUS
 62
     7
 10
1454.191202
 20
1020.958253
 11
1468.691294
 21
1020.958253
  0
LINE
  8
DATA
  6
CONTINUOUS
 62
     7
 10
1454.191202
 20
1022.166598
 11
1468.691294
 21
1022.166598
  0
LINE
  8
DATA
  6
CONTINUOUS
 62
     7
 10
1454.191202
 20
1018.541578
 11
1468.691294
 21
1018.541578
  0
LINE
  8
DATA
  6
CONTINUOUS
 62
     7
 10
1454.191202
 20
1019.749909
 11
1468.691294
 21
1019.749909
  0
LINE
  8
DATA
  6
CONTINUOUS
 62
     7
 10
1454.191202
 20
1029.416637
 11
1468.691294
 21
1029.416637
  0
LINE
  8
DATA
  6
CONTINUOUS
 62
     7
 10
1454.191202
 20
1031.833312
 11
1468.691294
 21
1031.833312
  0
LINE
  8
DATA
  6
CONTINUOUS
 62
     7
 10
1454.191202
 20
1030.624982
 11
1468.691294
 21
1030.624982
  0
LINE
  8
DATA
  6
CONTINUOUS
 62
     7
 10
1454.191202
 20
1034.250001
 11
1468.691294
 21
1034.250001
  0
LINE
  8
DATA
  6
CONTINUOUS
 62
     7
 10
1454.191202
 20
1033.041657
 11
1468.691294
 21
1033.041657
  0
LINE
  8
DATA
  6
CONTINUOUS
 62
     7
 10
1454.191202
 20
1028.208293
 11
1468.691294
 21
1028.208293
  0
LINE
  8
DATA
  6
CONTINUOUS
 62
     7
 10
1454.191202
 20
1025.791618
 11
1468.691294
 21
1025.791618
  0
LINE
  8
DATA
  6
CONTINUOUS
 62
     7
 10
1454.191202
 20
1023.374929
 11
1468.691294
 21
1023.374929
  0
LINE
  8
DATA
  6
CONTINUOUS
 62
     7
 10
1454.191202
 20
1024.583273
 11
1468.691294
 21
1024.583273
  0
LINE
  8
DATA
  6
CONTINUOUS
 62
     7
 10
1454.191202
 20
1026.999962
 11
1468.691294
 21
1026.999962
  0
LINE
  8
DATA
  6
CONTINUOUS
 62
     7
 10
1454.191202
 20
1037.875021
 11
1468.691294
 21
1037.875021
  0
LINE
  8
DATA
  6
CONTINUOUS
 62
     7
 10
1454.191202
 20
1036.666676
 11
1468.691294
 21
1036.666676
  0
LINE
  8
DATA
  6
CONTINUOUS
 62
     7
 10
1454.191202
 20
1035.458346
 11
1468.691294
 21
1035.458346
  0
LINE
  8
DATA
  6
CONTINUOUS
 62
     7
 10
1454.191202
 20
1041.50004
 11
1468.691294
 21
1041.50004
  0
LINE
  8
DATA
  6
CONTINUOUS
 62
     7
 10
1454.191202
 20
1041.50004
 11
1468.691294
 21
1041.50004
  0
LINE
  8
DATA
  6
CONTINUOUS
 62
     7
 10
1454.191202
 20
1040.291696
 11
1468.691294
 21
1040.291696
  0
LINE
  8
DATA
  6
CONTINUOUS
 62
     7
 10
1454.191202
 20
1039.083365
 11
1468.691294
 21
1039.083365
  0
CIRCLE
  8
DATA
  6
CONTINUOUS
 62
     7
 10
1421.478507
 20
1035.66553
 40
1.500016
  0
CIRCLE
  8
DATA
  6
CONTINUOUS
 62
     7
 10
1421.478507
 20
1035.66553
 40
2.464995
  0
LINE
  8
DATA
  6
CONTINUOUS
 62
     7
 10
1404.021864
 20
1020.499917
 11
1404.021864
 21
1033.499993
  0
LINE
  8
DATA
  6
CONTINUOUS
 62
     7
 10
1404.021864
 20
1020.499917
 11
1417.478484
 21
1020.499917
  0
LINE
  8
DATA
  6
CONTINUOUS
 62
     7
 10
1417.478484
 20
1019.59929
 11
1418.10984
 21
1019.59929
  0
ARC
  8
DATA
  6
CONTINUOUS
 62
     7
 10
1421.478507
 20
1017.442388
 40
4.000024
 50
32.630765
 51
147.369235
  0
LINE
  8
DATA
  6
CONTINUOUS
 62
     7
 10
1425.478531
 20
1019.59929
 11
1424.847188
 21
1019.59929
  0
LINE
  8
DATA
  6
CONTINUOUS
 62
     7
 10
1425.478531
 20
1020.499917
 11
1428.799156
 21
1020.499917
  0
LINE
  8
DATA
  6
CONTINUOUS
 62
     7
 10
1404.021864
 20
1033.499993
 11
1417.478484
 21
1033.499993
  0
LINE
  8
DATA
  6
CONTINUOUS
 62
     7
 10
1417.478484
 20
1034.40062
 11
1418.10984
 21
1034.40062
  0
LINE
  8
DATA
  6
CONTINUOUS
 62
     7
 10
1425.478531
 20
1033.499993
 11
1428.799156
 21
1033.499993
  0
LINE
  8
DATA
  6
CONTINUOUS
 62
     7
 10
1425.478531
 20
1034.40062
 11
1424.847188
 21
1034.40062
  0
ARC
  8
DATA
  6
CONTINUOUS
 62
     7
 10
1421.478507
 20
1036.557522
 40
4.000024
 50
212.630765
 51
327.369235
  0
LINE
  8
DATA
  6
CONTINUOUS
 62
     7
 10
1448.799274
 20
1040.500035
 11
1454.191202
 21
1040.500035
  0
ARC
  8
DATA
  6
CONTINUOUS
 62
     7
 10
1418.47849
 20
1038.500023
 40
1.000006
 50
90.0
 51
180.0
  0
ARC
  8
DATA
  6
CONTINUOUS
 62
     7
 10
1424.478525
 20
1038.500023
 40
1.000006
 50
0.0
 51
90.0
  0
LINE
  8
DATA
  6
CONTINUOUS
 62
     7
 10
1418.47849
 20
1039.500029
 11
1424.478525
 21
1039.500029
  0
LINE
  8
DATA
  6
CONTINUOUS
 62
     7
 10
1428.799156
 20
1038.250025
 11
1448.799274
 21
1040.500035
  0
LINE
  8
DATA
  6
CONTINUOUS
 62
     7
 10
1473.799435
 20
1021.381855
 11
1468.691294
 21
1021.381855
  0
LINE
  8
DATA
  6
CONTINUOUS
 62
     7
 10
1473.799435
 20
1020.381849
 11
1468.691294
 21
1020.381849
  0
LINE
  8
DATA
  6
CONTINUOUS
 62
     7
 10
1473.799435
 20
1028.208293
 11
1468.691294
 21
1028.208293
  0
LINE
  8
DATA
  6
CONTINUOUS
 62
     7
 10
1473.799435
 20
1029.208298
 11
1468.691294
 21
1029.208298
  0
LINE
  8
DATA
  6
CONTINUOUS
 62
     7
 10
1473.799435
 20
1036.531812
 11
1468.691294
 21
1036.531812
  0
LINE
  8
DATA
  6
CONTINUOUS
 62
     7
 10
1473.799435
 20
1035.531806
 11
1468.691294
 21
1035.531806
  0
LINE
  8
DATA
  6
CONTINUOUS
 62
     7
 10
1473.799435
 20
1037.000021
 11
1468.691294
 21
1037.000021
  0
LINE
  8
DATA
  6
CONTINUOUS
 62
     7
 10
1359.233234
 20
1038.210854
 11
1345.233137
 21
1015.210705
  0
LINE
  8
DATA
  6
CONTINUOUS
 62
     7
 10
1362.758791
 20
1038.210854
 11
1348.758708
 21
1015.210705
  0
LINE
  8
DATA
  6
CONTINUOUS
 62
     7
 10
1333.132606
 20
1037.973705
 11
1323.233168
 21
1030.902581
  0
LINE
  8
DATA
  6
CONTINUOUS
 62
     7
 10
1330.304292
 20
1040.802019
 11
1323.233168
 21
1030.902581
  0
LINE
  8
DATA
  6
CONTINUOUS
 62
     7
 10
1323.233168
 20
1030.902581
 11
1337.03123
 21
1044.700643
  0
LINE
  8
DATA
  6
CONTINUOUS
 62
     7
 10
1358.310275
 20
1030.902581
 11
1404.021864
 21
1030.902581
  0
LINE
  8
DATA
  6
CONTINUOUS
 62
     7
 10
1353.559257
 20
1023.097329
 11
1404.021864
 21
1023.097329
  0
LINE
  8
DATA
  6
CONTINUOUS
 62
     7
 10
1267.799568
 20
1023.097329
 11
1350.0337
 21
1023.097329
  0
ARC
  8
DATA
  6
CONTINUOUS
 62
     7
 10
1267.799568
 20
1033.097329
 40
10.0
 50
180.0
 51
270.0
  0
LINE
  8
DATA
  6
CONTINUOUS
 62
     7
 10
1267.799609
 20
1030.902581
 11
1354.784718
 21
1030.902581
  0
ARC
  8
DATA
  6
CONTINUOUS
 62
     7
 10
1267.799609
 20
1033.902581
 40
3.0
 50
180.0
 51
270.0
  0
LINE
  8
DATA
  6
CONTINUOUS
 62
     7
 10
1473.799428
 20
739.000007
 11
1468.691287
 21
739.000007
  0
LINE
  8
DATA
  6
CONTINUOUS
 62
     7
 10
1473.799428
 20
737.531792
 11
1468.691287
 21
737.531792
  0
LINE
  8
DATA
  6
CONTINUOUS
 62
     7
 10
1473.799428
 20
738.531798
 11
1468.691287
 21
738.531798
  0
LINE
  8
DATA
  6
CONTINUOUS
 62
     7
 10
1473.799428
 20
731.208285
 11
1468.691287
 21
731.208285
  0
LINE
  8
DATA
  6
CONTINUOUS
 62
     7
 10
1473.799428
 20
730.208279
 11
1468.691287
 21
730.208279
  0
LINE
  8
DATA
  6
CONTINUOUS
 62
     7
 10
1473.799428
 20
722.381836
 11
1468.691287
 21
722.381836
  0
LINE
  8
DATA
  6
CONTINUOUS
 62
     7
 10
1473.799428
 20
723.381841
 11
1468.691287
 21
723.381841
  0
LINE
  8
DATA
  6
CONTINUOUS
 62
     7
 10
1428.799149
 20
740.250011
 11
1448.799267
 21
742.500021
  0
LINE
  8
DATA
  6
CONTINUOUS
 62
     7
 10
1418.478483
 20
741.500015
 11
1424.478518
 21
741.500015
  0
ARC
  8
DATA
  6
CONTINUOUS
 62
     7
 10
1424.478518
 20
740.500009
 40
1.000006
 50
0.0
 51
90.0
  0
ARC
  8
DATA
  6
CONTINUOUS
 62
     7
 10
1418.478483
 20
740.500009
 40
1.000006
 50
90.0
 51
180.0
  0
LINE
  8
DATA
  6
CONTINUOUS
 62
     7
 10
1448.799267
 20
742.500021
 11
1454.191195
 21
742.500021
  0
ARC
  8
DATA
  6
CONTINUOUS
 62
     7
 10
1421.4785
 20
738.557508
 40
4.000024
 50
212.630765
 51
327.369235
  0
LINE
  8
DATA
  6
CONTINUOUS
 62
     7
 10
1425.478524
 20
736.400606
 11
1424.847181
 21
736.400606
  0
LINE
  8
DATA
  6
CONTINUOUS
 62
     7
 10
1425.478524
 20
735.499979
 11
1428.799149
 21
735.499979
  0
LINE
  8
DATA
  6
CONTINUOUS
 62
     7
 10
1417.478477
 20
736.400606
 11
1418.109833
 21
736.400606
  0
LINE
  8
DATA
  6
CONTINUOUS
 62
     7
 10
1404.021857
 20
735.499979
 11
1417.478477
 21
735.499979
  0
LINE
  8
DATA
  6
CONTINUOUS
 62
     7
 10
1425.478524
 20
722.499903
 11
1428.799149
 21
722.499903
  0
LINE
  8
DATA
  6
CONTINUOUS
 62
     7
 10
1425.478524
 20
721.599276
 11
1424.847181
 21
721.599276
  0
ARC
  8
DATA
  6
CONTINUOUS
 62
     7
 10
1421.4785
 20
719.442374
 40
4.000024
 50
32.630765
 51
147.369235
  0
LINE
  8
DATA
  6
CONTINUOUS
 62
     7
 10
1417.478477
 20
721.599276
 11
1418.109833
 21
721.599276
  0
LINE
  8
DATA
  6
CONTINUOUS
 62
     7
 10
1404.021857
 20
722.499903
 11
1417.478477
 21
722.499903
  0
LINE
  8
DATA
  6
CONTINUOUS
 62
     7
 10
1404.021857
 20
722.499903
 11
1404.021857
 21
735.499979
  0
CIRCLE
  8
DATA
  6
CONTINUOUS
 62
     7
 10
1421.4785
 20
737.665516
 40
2.464995
  0
CIRCLE
  8
DATA
  6
CONTINUOUS
 62
     7
 10
1421.4785
 20
737.665516
 40
1.500016
  0
LINE
  8
DATA
  6
CONTINUOUS
 62
     7
 10
1454.191195
 20
741.083351
 11
1468.691287
 21
741.083351
  0
LINE
  8
DATA
  6
CONTINUOUS
 62
     7
 10
1454.191195
 20
742.291682
 11
1468.691287
 21
742.291682
  0
LINE
  8
DATA
  6
CONTINUOUS
 62
     7
 10
1454.191195
 20
743.500026
 11
1468.691287
 21
743.500026
  0
LINE
  8
DATA
  6
CONTINUOUS
 62
     7
 10
1454.191195
 20
743.500026
 11
1468.691287
 21
743.500026
  0
LINE
  8
DATA
  6
CONTINUOUS
 62
     7
 10
1454.191195
 20
737.458332
 11
1468.691287
 21
737.458332
  0
LINE
  8
DATA
  6
CONTINUOUS
 62
     7
 10
1454.191195
 20
738.666662
 11
1468.691287
 21
738.666662
  0
LINE
  8
DATA
  6
CONTINUOUS
 62
     7
 10
1454.191195
 20
739.875007
 11
1468.691287
 21
739.875007
  0
LINE
  8
DATA
  6
CONTINUOUS
 62
     7
 10
1454.191195
 20
728.999948
 11
1468.691287
 21
728.999948
  0
LINE
  8
DATA
  6
CONTINUOUS
 62
     7
 10
1454.191195
 20
726.583259
 11
1468.691287
 21
726.583259
  0
LINE
  8
DATA
  6
CONTINUOUS
 62
     7
 10
1454.191195
 20
725.374915
 11
1468.691287
 21
725.374915
  0
LINE
  8
DATA
  6
CONTINUOUS
 62
     7
 10
1454.191195
 20
727.791604
 11
1468.691287
 21
727.791604
  0
LINE
  8
DATA
  6
CONTINUOUS
 62
     7
 10
1454.191195
 20
730.208279
 11
1468.691287
 21
730.208279
  0
LINE
  8
DATA
  6
CONTINUOUS
 62
     7
 10
1454.191195
 20
735.041643
 11
1468.691287
 21
735.041643
  0
LINE
  8
DATA
  6
CONTINUOUS
 62
     7
 10
1454.191195
 20
736.249987
 11
1468.691287
 21
736.249987
  0
LINE
  8
DATA
  6
CONTINUOUS
 62
     7
 10
1454.191195
 20
732.624968
 11
1468.691287
 21
732.624968
  0
LINE
  8
DATA
  6
CONTINUOUS
 62
     7
 10
1454.191195
 20
733.833298
 11
1468.691287
 21
733.833298
  0
LINE
  8
DATA
  6
CONTINUOUS
 62
     7
 10
1454.191195
 20
731.416623
 11
1468.691287
 21
731.416623
  0
LINE
  8
DATA
  6
CONTINUOUS
 62
     7
 10
1454.191195
 20
721.749895
 11
1468.691287
 21
721.749895
  0
LINE
  8
DATA
  6
CONTINUOUS
 62
     7
 10
1454.191195
 20
720.541564
 11
1468.691287
 21
720.541564
  0
LINE
  8
DATA
  6
CONTINUOUS
 62
     7
 10
1454.191195
 20
724.166584
 11
1468.691287
 21
724.166584
  0
LINE
  8
DATA
  6
CONTINUOUS
 62
     7
 10
1454.191195
 20
722.95824
 11
1468.691287
 21
722.95824
  0
LINE
  8
DATA
  6
CONTINUOUS
 62
     7
 10
1473.799428
 20
718.999875
 11
1468.691287
 21
718.999875
  0
LINE
  8
DATA
  6
CONTINUOUS
 62
     7
 10
1428.799149
 20
717.749871
 11
1448.799267
 21
715.499862
  0
LINE
  8
DATA
  6
CONTINUOUS
 62
     7
 10
1424.478518
 20
716.499868
 11
1418.478483
 21
716.499868
  0
ARC
  8
DATA
  6
CONTINUOUS
 62
     7
 10
1424.478518
 20
717.499873
 40
1.000006
 50
270.0
 51
0.0
  0
ARC
  8
DATA
  6
CONTINUOUS
 62
     7
 10
1418.478483
 20
717.499873
 40
1.000006
 50
180.0
 51
270.0
  0
LINE
  8
DATA
  6
CONTINUOUS
 62
     7
 10
1448.799267
 20
715.499862
 11
1454.191195
 21
715.499862
  0
LINE
  8
DATA
  6
CONTINUOUS
 62
     7
 10
1454.191195
 20
718.124875
 11
1468.691287
 21
718.124875
  0
LINE
  8
DATA
  6
CONTINUOUS
 62
     7
 10
1454.191195
 20
719.33322
 11
1468.691287
 21
719.33322
  0
LINE
  8
DATA
  6
CONTINUOUS
 62
     7
 10
1454.191195
 20
714.499856
 11
1468.691287
 21
714.499856
  0
LINE
  8
DATA
  6
CONTINUOUS
 62
     7
 10
1454.191195
 20
715.7082
 11
1468.691287
 21
715.7082
  0
LINE
  8
DATA
  6
CONTINUOUS
 62
     7
 10
1454.191195
 20
716.916531
 11
1468.691287
 21
716.916531
  0
LINE
  8
DATA
  6
CONTINUOUS
 62
     7
 10
1468.691287
 20
714.499856
 11
1468.691287
 21
743.500026
  0
LINE
  8
DATA
  6
CONTINUOUS
 62
     7
 10
1473.799428
 20
718.999875
 11
1473.799428
 21
739.000007
  0
CIRCLE
  8
DATA
  6
CONTINUOUS
 62
     7
 10
1421.4785
 20
720.334366
 40
2.464995
  0
CIRCLE
  8
DATA
  6
CONTINUOUS
 62
     7
 10
1421.4785
 20
720.334366
 40
1.500016
  0
LINE
  8
DATA
  6
CONTINUOUS
 62
     7
 10
1454.191195
 20
714.499856
 11
1454.191195
 21
743.500026
  0
LINE
  8
DATA
  6
CONTINUOUS
 62
     7
 10
1428.799149
 20
717.749871
 11
1428.799149
 21
740.250011
  0
LINE
  8
DATA
  6
CONTINUOUS
 62
     7
 10
1425.478524
 20
717.499873
 11
1425.478524
 21
740.500009
  0
LINE
  8
DATA
  6
CONTINUOUS
 62
     7
 10
1417.478477
 20
717.499873
 11
1417.478477
 21
740.500009
  0
LINE
  8
DATA
  6
CONTINUOUS
 62
     7
 10
1323.233161
 20
732.902567
 11
1337.031223
 21
746.700629
  0
LINE
  8
DATA
  6
CONTINUOUS
 62
     7
 10
1330.304285
 20
742.802005
 11
1323.233161
 21
732.902567
  0
LINE
  8
DATA
  6
CONTINUOUS
 62
     7
 10
1333.132599
 20
739.973691
 11
1323.233161
 21
732.902567
  0
LINE
  8
DATA
  6
CONTINUOUS
 62
     7
 10
1362.758784
 20
740.21084
 11
1348.758701
 21
717.210691
  0
LINE
  8
DATA
  6
CONTINUOUS
 62
     7
 10
1359.233227
 20
740.21084
 11
1345.23313
 21
717.210691
  0
LINE
  8
DATA
  6
CONTINUOUS
 62
     7
 10
1353.55925
 20
725.097315
 11
1404.021857
 21
725.097315
  0
LINE
  8
DATA
  6
CONTINUOUS
 62
     7
 10
1358.310268
 20
732.902567
 11
1404.021857
 21
732.902567
  0
LINE
  8
DATA
  6
CONTINUOUS
 62
     7
 10
1280.299603
 20
732.902567
 11
1354.784711
 21
732.902567
  0
LINE
  8
DATA
  6
CONTINUOUS
 62
     7
 10
1277.299603
 20
818.3562
 11
1277.299603
 21
735.902567
  0
ARC
  8
DATA
  6
CONTINUOUS
 62
     7
 10
1280.299603
 20
735.902567
 40
3.0
 50
180.0
 51
270.0
  0
LINE
  8
DATA
  6
CONTINUOUS
 62
     7
 10
1270.299561
 20
818.3562
 11
1270.299561
 21
735.097315
  0
LINE
  8
DATA
  6
CONTINUOUS
 62
     7
 10
1280.299561
 20
725.097315
 11
1350.033693
 21
725.097315
  0
ARC
  8
DATA
  6
CONTINUOUS
 62
     7
 10
1280.299561
 20
735.097315
 40
10.0
 50
180.0
 51
270.0
  0
TEXT
  8
DIMENSIONS
  6
CONTINUOUS
 62
     7
 10
1310.351277
 20
962.5
 40
25.0
  1
482.6
  7
TTF_DEFAULT
  0
LINE
  8
KANAGU
  6
CONTINUOUS
 62
     7
 10
1435.800551
 20
1120.0
 11
1435.800551
 21
1149.0
  0
LINE
  8
KANAGU
  6
CONTINUOUS
 62
     7
 10
1433.800551
 20
1120.0
 11
1433.800551
 21
1149.0
  0
CIRCLE
  8
KANAGU
  6
CONTINUOUS
 62
     7
 10
1383.3
 20
1112.0
 40
2.5
  0
LINE
  8
KANAGU
  6
HIDDEN
 62
     7
 10
1433.800551
 20
1108.0
 11
1435.800551
 21
1108.0
  0
LINE
  8
KANAGU
  6
HIDDEN
 62
     7
 10
1435.800551
 20
1107.0
 11
1435.800551
 21
1120.0
  0
LINE
  8
KANAGU
  6
HIDDEN
 62
     7
 10
1433.800551
 20
1108.0
 11
1433.800551
 21
1120.0
  0
CIRCLE
  8
KANAGU
  6
CONTINUOUS
 62
     7
 10
1383.3
 20
1112.0
 40
4.0
  0
LINE
  8
DATA
  6
CONTINUOUS
 62
     7
 10
1422.800487
 20
1101.999955
 11
1422.800487
 21
1098.999937
  0
LINE
  8
DATA
  6
CONTINUOUS
 62
     7
 10
1398.381541
 20
1094.001172
 11
1398.381541
 21
1098.999937
  0
LINE
  8
DATA
  6
CONTINUOUS
 62
     7
 10
1418.381658
 20
1094.001172
 11
1418.381658
 21
1098.999937
  0
LINE
  8
DATA
  6
CONTINUOUS
 62
     7
 10
1420.88168
 20
1098.999937
 11
1420.88168
 21
1101.999955
  0
LINE
  8
DATA
  6
CONTINUOUS
 62
     7
 10
1395.881533
 20
1101.999955
 11
1395.881533
 21
1098.999937
  0
LINE
  8
DATA
  6
CONTINUOUS
 62
     7
 10
1398.381541
 20
1094.001172
 11
1418.381658
 21
1094.001172
  0
LINE
  8
DATA
  6
CONTINUOUS
 62
     7
 10
1374.800204
 20
1101.999955
 11
1374.800204
 21
1098.999937
  0
LINE
  8
DATA
  6
CONTINUOUS
 62
     7
 10
1374.800204
 20
1098.999937
 11
1422.800487
 21
1098.999937
  0
LINE
  8
KANAGU
  6
CONTINUOUS
 62
     7
 10
1246.799435
 20
1149.0
 11
1246.799435
 21
1120.0
  0
LINE
  8
KANAGU
  6
CONTINUOUS
 62
     7
 10
1248.799435
 20
1149.0
 11
1248.799435
 21
1120.0
  0
CIRCLE
  8
KANAGU
  6
CONTINUOUS
 62
     7
 10
1299.3
 20
1112.0
 40
2.5
  0
LINE
  8
KANAGU
  6
HIDDEN
 62
     7
 10
1246.799435
 20
1108.0
 11
1248.799435
 21
1108.0
  0
LINE
  8
KANAGU
  6
HIDDEN
 62
     7
 10
1246.799435
 20
1107.0
 11
1246.799435
 21
1120.0
  0
LINE
  8
KANAGU
  6
HIDDEN
 62
     7
 10
1248.799435
 20
1120.0
 11
1248.799435
 21
1108.0
  0
CIRCLE
  8
KANAGU
  6
CONTINUOUS
 62
     7
 10
1299.3
 20
1112.0
 40
4.0
  0
LINE
  8
KANAGU
  6
HIDDEN
 62
     7
 10
1246.799435
 20
1107.0
 11
1435.800551
 21
1107.0
  0
INSERT
  8
DATA
  2
DCP125-G2
 10
0.0
 20
0.0
  0
TEXT
  8
HIBINO-BASE
  6
CONTINUOUS
 62
     7
 10
1587.300263
 20
85.9132
 40
40.0
  1
ヒビノ株式会社
  7
TTF_DEFAULT
  0
TEXT
  8
HIBINO-BASE
  6
CONTINUOUS
 62
     7
 10
1730.0
 20
225.0
 40
25.0
  1
DRAWING NO.
  7
TTF_DEFAULT
  0
TEXT
  8
DATA
  6
CONTINUOUS
 62
     7
 10
1525.0
 20
281.25
 40
30.0
  1
DCP125
  7
TTF_DEFAULT
  0
TEXT
  8
HIBINO-BASE
  6
CONTINUOUS
 62
     7
 10
1605.0
 20
225.0
 40
25.0
  1
CHECK
  7
TTF_DEFAULT
  0
LINE
  8
HIBINO-BASE
  6
CONTINUOUS
 62
     7
 10
1725.0
 20
250.0
 11
1725.0
 21
150.0
  0
LINE
  8
HIBINO-BASE
  6
CONTINUOUS
 62
     7
 10
1600.0
 20
150.0
 11
1600.0
 21
250.0
  0
TEXT
  8
DATA
  6
CONTINUOUS
 62
     7
 10
1525.0
 20
331.25
 40
30.0
  1
Soundcraft
  7
TTF_DEFAULT
  0
INSERT
  8
DATA
  2
DCP125-G3
 10
0.0
 20
0.0
  0
LINE
  8
KANAGU
  6
CONTINUOUS
 62
     7
 10
1571.3
 20
885.6
 11
1576.3
 21
885.6
  0
LINE
  8
KANAGU
  6
CONTINUOUS
 62
     7
 10
1571.3
 20
878.6
 11
1576.3
 21
878.6
  0
ARC
  8
KANAGU
  6
CONTINUOUS
 62
     7
 10
1576.3
 20
882.1
 40
3.5
 50
270.0
 51
90.0
  0
ARC
  8
KANAGU
  6
CONTINUOUS
 62
     7
 10
1571.3
 20
882.1
 40
3.5
 50
90.0
 51
270.0
  0
LINE
  8
KANAGU
  6
CONTINUOUS
 62
     7
 10
1571.3
 20
809.4
 11
1576.3
 21
809.4
  0
LINE
  8
KANAGU
  6
CONTINUOUS
 62
     7
 10
1571.3
 20
802.4
 11
1576.3
 21
802.4
  0
ARC
  8
KANAGU
  6
CONTINUOUS
 62
     7
 10
1576.3
 20
805.9
 40
3.5
 50
270.0
 51
90.0
  0
ARC
  8
KANAGU
  6
CONTINUOUS
 62
     7
 10
1571.3
 20
805.9
 40
3.5
 50
90.0
 51
270.0
  0
LINE
  8
KANAGU
  6
CONTINUOUS
 62
     7
 10
1582.6
 20
888.0
 11
1582.6
 21
800.0
  0
LINE
  8
KANAGU
  6
CONTINUOUS
 62
     7
 10
1668.0
 20
884.0
 11
1668.0
 21
886.0
  0
LINE
  8
KANAGU
  6
CONTINUOUS
 62
     7
 10
1650.0
 20
884.0
 11
1668.0
 21
884.0
  0
LINE
  8
KANAGU
  6
CONTINUOUS
 62
     7
 10
1648.0
 20
886.0
 11
1668.0
 21
886.0
  0
CIRCLE
  8
KANAGU
  6
CONTINUOUS
 62
     7
 10
1689.0
 20
814.0
 40
2.0
  0
LINE
  8
KANAGU
  6
CONTINUOUS
 62
     7
 10
1697.0
 20
822.0
 11
1697.0
 21
798.0
  0
ARC
  8
KANAGU
  6
CONTINUOUS
 62
     7
 10
1658.5
 20
819.5
 40
2.5
 50
90.0
 51
180.0
  0
LINE
  8
KANAGU
  6
CONTINUOUS
 62
     7
 10
1656.0
 20
819.5
 11
1656.0
 21
800.0
  0
LINE
  8
KANAGU
  6
CONTINUOUS
 62
     7
 10
1658.5
 20
822.0
 11
1697.0
 21
822.0
  0
LINE
  8
KANAGU
  6
CONTINUOUS
 62
     7
 10
1650.0
 20
800.0
 11
1697.0
 21
800.0
  0
LINE
  8
KANAGU
  6
CONTINUOUS
 62
     7
 10
1648.0
 20
798.0
 11
1697.0
 21
798.0
  0
LINE
  8
KANAGU
  6
CONTINUOUS
 62
     7
 10
1650.0
 20
798.0
 11
1650.0
 21
886.0
  0
LINE
  8
KANAGU
  6
CONTINUOUS
 62
     7
 10
1648.0
 20
798.0
 11
1648.0
 21
886.0
  0
LINE
  8
DIMENSIONS
  6
CONTINUOUS
 62
     7
 10
1582.6
 20
898.0
 11
1582.6
 21
962.5
  0
LINE
  8
DIMENSIONS
  6
CONTINUOUS
 62
     7
 10
1562.6
 20
946.6668
 11
1582.6
 21
950.0
  0
LINE
  8
DIMENSIONS
  6
CONTINUOUS
 62
     7
 10
1562.6
 20
953.3332
 11
1582.6
 21
950.0
  0
ARC
  8
KANAGU
  6
CONTINUOUS
 62
     7
 10
1554.8
 20
1146.5
 40
2.5
 50
0.0
 51
90.0
  0
ARC
  8
KANAGU
  6
CONTINUOUS
 62
     7
 10
1554.8
 20
1117.5
 40
2.5
 50
0.0
 51
90.0
  0
LINE
  8
KANAGU
  6
CONTINUOUS
 62
     7
 10
1557.3
 20
1117.5
 11
1557.3
 21
1146.5
  0
LINE
  8
KANAGU
  6
CONTINUOUS
 62
     7
 10
1582.6
 20
1100.0
 11
1582.6
 21
1102.0
  0
LINE
  8
KANAGU
  6
CONTINUOUS
 62
     7
 10
1557.3
 20
1102.0
 11
1557.3
 21
1117.5
  0
LINE
  8
SPEC
  6
CONTINUOUS
 62
     7
 10
1600.0
 20
2462.5
 11
1600.0
 21
2650.0
  0
ENDSEC
  0
EOF
